Loading...
Error

Мальчик / Кукла / Самый обычный мальчик / The Boy (Крэйг Уилльям Макнейлл) [2015 г., ужасы, триллер, драма, WEB-DLRip] VO

Статистика раздачи
Размер:  1,27 GB   |    Зарегистрирован:  1 год 3 месяца   |    Скачан:  8 раз

Полного источника не было: 3 месяца 15 дней

Сидов:  0  |  0 KB/s  ]   Личеров:  0  |  0 KB/s  ]

* - сиды/пиры с внешних источников

   
 
Автор Сообщение

makkol Пол:Муж

28-Авг-2015 14:25

Мальчик / Кукла / Самый обычный мальчик / The Boy


Год выпуска: 2015
Жанр: ужасы, триллер, драма
Производство: США [Chiller Films, Contento Films, SpectreVision]
Режиссер: Крэйг Уилльям Макнейлл
В ролях: Дэвид Морс, Рэйн Уилсон, Джаред Бриз, Билл Сейдж, Майк Фогель, Зулейха Робинсон, Эйден Лавкамп, Дэвид Валенсиа, Амалия Санта Мария
Сюжет фильма:
Это первая часть трилогии о том, как обычный мальчик становится серийным маньяком-убийцей.
Глухая американская провинция, 1989 год. В мотеле среди лесов и гор живут отец и сын. Семейный бизнес медленно, но верно идет ко дну. Отец слишком погружен в себя, чтобы уделять внимание 9-летнему ребенку и тот сам придумывает себе развлечения. С течением времени развлечения эти становятся все более странными...

  • Мировая премьера: 14 марта 2015
  • Российская премьера: 4 февраля 2016


Перевод: М.Васильев
Озвучивание: LetEatBee

Качество видео: WEB-DLRip

Продолжительность: 01:50:31
Формат: AVI
Видео: XviD, 720x304 (2.35:1), 23.976 fps, 1247 kbps
Аудио: русский, любительский одноголосый закадровый, AC3 5.1, 48 kHz, 384 kbps

Код:

General
Complete name : KuKLa.2015.L1.WEBDLRip.avi
Format : AVI
Format/Info : Audio Video Interleave
File size : 1.27 GiB
Duration : 1h 50mn
Overall bit rate : 1 641 Kbps
Writing library : VirtualDub build 35491/release

Video
ID : 0
Format : MPEG-4 Visual
Format profile : Advanced Simple@L5
Format settings, BVOP : 2
Format settings, QPel : No
Format settings, GMC : No warppoints
Format settings, Matrix : Default (H.263)
Muxing mode : Packed bitstream
Codec ID : XVID
Codec ID/Hint : XviD
Duration : 1h 50mn
Bit rate : 1 247 Kbps
Width : 720 pixels
Height : 304 pixels
Display aspect ratio : 2.35:1
Frame rate : 23.976 fps
Color space : YUV
Chroma subsampling : 4:2:0
Bit depth : 8 bits
Scan type : Progressive
Compression mode : Lossy
Bits/(Pixel*Frame) : 0.238
Stream size : 986 MiB (76%)
Writing library : XviD 66

Audio
ID : 1
Format : AC-3
Format/Info : Audio Coding 3
Mode extension : CM (complete main)
Format settings, Endianness : Big
Codec ID : 2000
Duration : 1h 50mn
Bit rate mode : Constant
Bit rate : 384 Kbps
Channel(s) : 6 channels
Channel positions : Front: L C R, Side: L R, LFE
Sampling rate : 48.0 KHz
Bit depth : 16 bits
Compression mode : Lossy
Stream size : 304 MiB (23%)
Alignment : Aligned on interleaves
Interleave, duration : 42 ms (1.00 video frame)
Interleave, preload duration : 512 ms
picpicpicpicpic
Для увеличения картинки щелкните мышкой по превью

Этот торрент недоступен для скачивания без регистрации, однако доступен по публичной magnet-ссылке (источники с публичных трекеров). Перед использованием ссылки прочтите, пожалуйста Пользовательское соглашение, а также как можно дольше оставайтесь на раздаче! Для того, чтобы скачать сам торрент-файл (который видит больше источников), а также для того, чтобы поблагодарить релизера, вам необходимо зарегистрироваться. Если регистрироваться лень - вы можете также попробовать скачать релиз по нашим партнерским ссылкам ниже.

[underverse.su].t57596.torrent
Трекер: Зарегистрирован   [ 28.08.2015 14:25 ]  

Статус: проверено (by makkol at 29.08.2015 11:20)
Поблагодарили: пока никто не поблагодарил...
Тип торрента: публичный - доступные источники с открытых трекеров: 
Размер: 1,27 GB (занимает 0,29 DVDR, для записи нужно 1 болванка DVDR/RW)
 
 
Похожие темы
Форум Тема Автор Торрент Отв. Посл. сооб.
Зарубежное кино [HDDVDRip / BDRip / WEB-DL / HDTV 1080/720р] Мальчик / Кукла / Самый обычный мальчик / The Boy (Крэйг Уилльям Макнейлл) [2015 г., ужасы, триллер, драма, WEB-DL 1080p] VO + Original + Subs (Eng) makkol
30 | 0

2 | 649

13

08.03.2016 09:03


Яндекс.Метрика powered by Sphinx


В Н И М А Н И Е
Сайт не распространяет и не хранит электронные версии произведений, а лишь бесплатно и без коммерческой выгоды (не требуя взамен платы,
SMS и т.д.) предоставляет доступ к создаваемому пользователями каталогу ссылок на торрент-файлы, которые содержат только списки хеш-сумм.
Убедительная просьба с жалобами обращаться напрямую к пользователю, разместившему торрент файл.

Вверх