Loading...
Error

Веснушка / Имон / Eamon (Маргарет Коркери) [2009 г., мелодрама, чёрная комедия, IPTVRip] DVO

Статистика раздачи
Размер:  1,34 GB   |    Зарегистрирован:  1 год 3 месяца   |    Скачан:  18 раз

Полного источника не было: 9 месяцев

Сидов:  0  |  0 KB/s  ]   Личеров:  0  |  0 KB/s  ]

* - сиды/пиры с внешних источников

   
 
Автор Сообщение

makkol Пол:Муж

27-Авг-2015 22:52

Веснушка / Имон / Eamon


Год выпуска: 2009
Жанр: мелодрама, чёрная комедия
Производство: Ирландия [Irish Film Board, Zanita Films]
Режиссер: Маргарет Коркери
В ролях: Роберт Доннелли, Эми Кирван, Даррен Хейли, Дирдри Монахэн, Филлис МакМэйхон, Мэри Мюррэй, Люк Далтон, Кит Багги, Мюирэнн Бёрд, Тим Гэхан
Сюжет фильма:
Семья выезжает за город для проведения выходных дней возле моря. Очень трудно приходится каждому члену этого разрушительного любовного треугольника, одним из которых является Имон - мальчик с проблемами поведения, его эгоистичная мама Грейс, и сексуально озабоченный папа Даниель. Мальчик считает, что и мама, и папа принадлежат только ему, но ни в коем случает друг другу; Грейс не на шутку увлекается пляжным красавцем; мысли Даниеля направлены только на то, как бы остаться со своей женой наедине...

  • Мировая премьера: 5 июля 2009


Качество видео: IPTVRip

Продолжительность: 01:21:25
Формат: AVI
Видео: XviD, 720x400 (16:9), 25.000 fps, 2092 kbps
Аудио: русский, профессиональный двухголосый закадровый (студия Акцент), AC3 2.0, 48 kHz, 256 kbps

Внимание: Фильм не рекомендован для просмотра лицами младше 15 лет!

Код:

Общее
Полное имя                               : Eamon (2009).avi
Формат                                   : AVI
Формат/Информация                        : Audio Video Interleave
Профиль формата                          : OpenDML
Размер файла                             : 1,34 Гбайт
Продолжительность                        : 1 ч. 21 м.
Общий поток                              : 2361 Кбит/сек
Программа кодирования                    : XviD4PSP 6.0 / 54.29.105

Видео
Идентификатор                            : 0
Формат                                   : xvid
Идентификатор кодека                     : xvid
Продолжительность                        : 1 ч. 21 м.
Битрейт                                  : 2092 Кбит/сек
Ширина                                   : 720 пикселей
Высота                                   : 400 пикселей
Соотношение сторон                       : 16:9
Частота кадров                           : 25,000 кадров/сек
Бит/(Пиксели*Кадры)                      : 0.291
Размер потока                            : 1,19 Гбайт (89%)

Аудио
Идентификатор                            : 1
Формат                                   : AC-3
Формат/Информация                        : Audio Coding 3
Расширение режима                        : CM (complete main)
Параметр Endianness формата              : Big
Идентификатор кодека                     : 2000
Продолжительность                        : 1 ч. 21 м.
Вид битрейта                             : Постоянный
Битрейт                                  : 256 Кбит/сек
Каналы                                   : 2 канала
Расположение каналов                     : Front: L R
Частота                                  : 48,0 КГц
Битовая глубина                          : 16 бит
Метод сжатия                             : С потерями
Размер потока                            : 149 Мбайт (11%)
Выравнивание                             : Соединение по промежуткам
Продолжительность промежутка             : 32  мс. (0,80 видеокадр)
picpicpicpicpic
Для увеличения картинки щелкните мышкой по превью

Этот торрент недоступен для скачивания без регистрации, однако доступен по публичной magnet-ссылке (источники с публичных трекеров). Перед использованием ссылки прочтите, пожалуйста Пользовательское соглашение, а также как можно дольше оставайтесь на раздаче! Для того, чтобы скачать сам торрент-файл (который видит больше источников), а также для того, чтобы поблагодарить релизера, вам необходимо зарегистрироваться. Если регистрироваться лень - вы можете также попробовать скачать релиз по нашим партнерским ссылкам ниже.

[underverse.su].t57584.torrent
Трекер: Зарегистрирован   [ 27.08.2015 22:52 ]  

Статус: проверено (by makkol at 29.08.2015 11:31)
Поблагодарили: пока никто не поблагодарил...
Тип торрента: публичный - доступные источники с открытых трекеров: 
Размер: 1,34 GB (занимает 0,31 DVDR, для записи нужно 1 болванка DVDR/RW)
 
 
Похожие темы
Форум Тема Автор Торрент Отв. Посл. сооб.
Зарубежное кино [DVDRip, Low-Res HDRip, и т.д.] Веснушка / Имон / Eamon (Маргарет Коркери) [2009 г., мелодрама, чёрная комедия, DVDRip] DVO + Original makkol
1 | 0

0 | 558

10

29.08.2015 11:04


Яндекс.Метрика powered by Sphinx


В Н И М А Н И Е
Сайт не распространяет и не хранит электронные версии произведений, а лишь бесплатно и без коммерческой выгоды (не требуя взамен платы,
SMS и т.д.) предоставляет доступ к создаваемому пользователями каталогу ссылок на торрент-файлы, которые содержат только списки хеш-сумм.
Убедительная просьба с жалобами обращаться напрямую к пользователю, разместившему торрент файл.

Вверх