Loading...
Error

Экскурсовод / Cambio de ruta (Кристофер Хул) [2014 г., комедия, мелодрама, DVDRip] MVO

Статистика раздачи
Размер:  1,37 GB   |    Зарегистрирован:  1 год 3 месяца   |    Скачан:  21 раз

Полного источника не было: 8 месяцев

Сидов:  0  |  0 KB/s  ]   Личеров:  0  |  0 KB/s  ]

* - сиды/пиры с внешних источников

   
 
Автор Сообщение

makkol Пол:Муж

27-Авг-2015 22:25

Экскурсовод / Cambio de ruta


Год выпуска: 2014
Жанр: комедия, мелодрама
Производство: Мексика [Bazooka Films, Itaca Films, Salamandra Films]
Режиссер: Кристофер Хул
В ролях: Эктор Хименес, Сандра Эчеверриа, Каролина Банг, Долорес Эредия, Марсела Гардеасабаль, Освальдо де Леон, Эрик дель Кастильо
Сюжет фильма:
Никте – удивительная девушка. Она не только безумно красива, но еще очень отважна. Согласитесь, далеко не каждая женщина смогла бы быть экскурсоводом в джунглях. Никте обожает нырять со скалы и кататься на канатке над кронами деревьев, не боится брать в руки тарантулов и, кажется, знает все тайные тропы, какие только можно себе представить. В один прекрасный день Никте узнает, что собственник компании решил все бросить и уехать с молодой любовницей на другой край света. Она обескуражена. Вскоре Никте предстоит знакомство с новым начальством, а затем и серьезные перемены в личной жизни…

  • Мировая премьера: 23 мая 2014


Качество видео: DVDRip

Продолжительность: 01:33:49
Формат: AVI
Видео: XviD, 720x400 (16:9), 23.976 fps, 1884 kbps
Аудио: русский, профессиональный многоголосый закадровый (официальный звук), AC3 2.0, 48 kHz, 192 kbps

Код:

Формат : AVI
Формат/Информация : Audio Video Interleave
Размер файла : 1,37 Гбайт
Продолжительность : 1 ч. 33 м.
Общий поток : 2085 Кбит/сек
Программа кодирования : VirtualDubMod 1.5.10.2 (build 2540/release)
Библиотека кодирования : VirtualDubMod build 2540/release

Видео
Идентификатор : 0
Формат : MPEG-4 Visual
Профиль формата : Advanced Simple@L5
Параметр BVOP формата : 2
Параметр QPel формата : Нет
Параметр GMC формата : Без точки перехода
Параметр матрицы формата : Default (MPEG)
Идентификатор кодека : XVID
Идентификатор кодека/Подсказка : XviD
Продолжительность : 1 ч. 33 м.
Битрейт : 1884 Кбит/сек
Ширина : 720 пикселей
Высота : 400 пикселей
Соотношение сторон : 16:9
Частота кадров : 23,976 кадра/сек
Цветовое пространство : YUV
Субдискретизация насыщенности : 4:2:0
Битовая глубина : 8 бит
Тип развёртки : Прогрессивная
Метод сжатия : С потерями
Бит/(Пиксели*Кадры) : 0.273
Размер потока : 1,23 Гбайт (90%)
Библиотека кодирования : XviD 1.2.1 (UTC 2008-12-04)

Аудио
Идентификатор : 1
Формат : AC-3
Формат/Информация : Audio Coding 3
Расширение режима : CM (complete main)
Параметр Endianness формата : Big
Идентификатор кодека : 2000
Продолжительность : 1 ч. 33 м.
Вид битрейта : Постоянный
Битрейт : 192 Кбит/сек
Каналы : 2 канала
Расположение каналов : Front: L R
Частота : 48,0 КГц
Битовая глубина : 16 бит
Метод сжатия : С потерями
Размер потока : 129 Мбайт (9%)
Выравнивание : Разделение по промежуткам
Продолжительность промежутка : 42 мс. (1,00 видеокадр)
Время предзагрузки промежутка : 500 мс.
picpicpicpicpic
Для увеличения картинки щелкните мышкой по превью

Этот торрент недоступен для скачивания без регистрации, однако доступен по публичной magnet-ссылке (источники с публичных трекеров). Перед использованием ссылки прочтите, пожалуйста Пользовательское соглашение, а также как можно дольше оставайтесь на раздаче! Для того, чтобы скачать сам торрент-файл (который видит больше источников), а также для того, чтобы поблагодарить релизера, вам необходимо зарегистрироваться. Если регистрироваться лень - вы можете также попробовать скачать релиз по нашим партнерским ссылкам ниже.

[underverse.su].t57583.torrent
Трекер: Зарегистрирован   [ 27.08.2015 22:25 ]  

Статус: проверено (by makkol at 29.08.2015 11:37)
Поблагодарили: пока никто не поблагодарил...
Тип торрента: публичный - доступные источники с открытых трекеров: 
Размер: 1,37 GB (занимает 0,31 DVDR, для записи нужно 1 болванка DVDR/RW)
 
 
Похожие темы
Форум Тема Автор Торрент Отв. Посл. сооб.
Зарубежное кино [DVDRip, Low-Res HDRip, и т.д.] Экскурсовод / Cambio de ruta (Кристофер Хул / Christopher Hool) [2014 г., комедия, мелодрама, DVDRip] MVO Паукан
18 | 0

0 | 592

14

30.08.2015 12:03


Яндекс.Метрика powered by Sphinx


В Н И М А Н И Е
Сайт не распространяет и не хранит электронные версии произведений, а лишь бесплатно и без коммерческой выгоды (не требуя взамен платы,
SMS и т.д.) предоставляет доступ к создаваемому пользователями каталогу ссылок на торрент-файлы, которые содержат только списки хеш-сумм.
Убедительная просьба с жалобами обращаться напрямую к пользователю, разместившему торрент файл.

Вверх