Loading...
Error

Блант Говорит / Вещественный Блант / Blunt Talk / Сезон 1 (1-10 серии из 10) (Тристрам Шапиро, Билл Д’Элиа) [2015 г., комедия, HDTVRip] MVO + Original

Статистика раздачи
Размер:  3,76 GB   |    Зарегистрирован:  1 год 1 месяц   |    Скачан:  1 раз

Полного источника не было: 4 месяца 26 дней

Сидов:  0  |  0 KB/s  ]   Личеров:  0  |  0 KB/s  ]

* - сиды/пиры с внешних источников

   
 
Автор Сообщение

older Пол:Муж

27-Авг-2015 15:18

Блант Говорит / Вещественный Блант / Blunt Talk / Сезон 1


Год выпуска: 2015
Жанр: комедия
Страна: США
Режиссер: Тристрам Шапиро, Билл Д’Элиа
В ролях: Патрик Стюарт, Эдриан Скарборо, Тимм Шарп, Джеки Уивер, Долли Уэллс, Каран Сони, Мэри Холлэнд, Ричард Льюис, Кен Уейлер, Эйдан Кларк
Сюжет фильма:
Эксцентричный британский телеведущий Уолтер Блант переезжает в Лос-Анджелес вместе со своим слугой-алкоголиком и багажом из нескольких неудачных браков, чтобы вести собственное ток-шоу, в котором Блант пытается давать американцам мудрые на его взгляд советы о правильном образе жизни, мыслях и поведении, хотя самого Уолтера трудно назвать примером для подражания.

Качество видео: HDTVRip

Продолжительность: ~ 00:30:00
Формат: AVI
Видео: XviD, 640Х360, 1044 kbps
Аудио #1: русский, многоголосый закадровый [профессиональный], MP3 2.0, 128 kbps
Аудио #2: английский, оригинал, MP3 2.0, 128 kbps

Код:

Общее
Полное имя                               : \Blunt.Talk (S01) Jaskier\Blunt.Talk. s01e01.Jaskier.avi
Формат                                   : AVI
Формат/Информация                        : Audio Video Interleave
Размер файла                             : 285 Мбайт
Продолжительность                        : 30 м.
Общий поток                              : 1318 Кбит/сек
Программа кодирования                    : VirtualDubMod 1.5.10.2 (build 2540/release)
Библиотека кодирования                   : VirtualDubMod build 2540/release

Видео
Идентификатор                            : 0
Формат                                   : xvid
Идентификатор кодека                     : xvid
Продолжительность                        : 30 м.
Битрейт                                  : 1044 Кбит/сек
Ширина                                   : 640 пикселей
Высота                                   : 360 пикселей
Соотношение сторон                       : 16:9
Частота кадров                           : 23,976 кадра/сек
Бит/(Пиксели*Кадры)                      : 0.189
Размер потока                            : 226 Мбайт (79%)

Аудио #1
Идентификатор                            : 1
Формат                                   : MPEG Audio
Версия формата                           : Version 1
Профиль формата                          : Layer 3
Режим                                    : Joint stereo
Расширение режима                        : MS Stereo
Идентификатор кодека                     : 55
Идентификатор кодека/Подсказка           : MP3
Продолжительность                        : 30 м.
Вид битрейта                             : Постоянный
Битрейт                                  : 128 Кбит/сек
Каналы                                   : 2 канала
Частота                                  : 44,1 КГц
Метод сжатия                             : С потерями
Размер потока                            : 27,6 Мбайт (10%)
Выравнивание                             : Разделение по промежуткам
Продолжительность промежутка             : 42  мс. (1,00 видеокадр)
Время предзагрузки промежутка            : 500  мс.

Аудио #2
Идентификатор                            : 2
Формат                                   : MPEG Audio
Версия формата                           : Version 1
Профиль формата                          : Layer 3
Режим                                    : Joint stereo
Расширение режима                        : MS Stereo
Идентификатор кодека                     : 55
Идентификатор кодека/Подсказка           : MP3
Продолжительность                        : 30 м.
Вид битрейта                             : Постоянный
Битрейт                                  : 128 Кбит/сек
Каналы                                   : 2 канала
Частота                                  : 48,0 КГц
Метод сжатия                             : С потерями
Размер потока                            : 27,7 Мбайт (10%)
Выравнивание                             : Соединение по промежуткам
Продолжительность промежутка             : 24  мс. (0,58 видеокадр)
Время предзагрузки промежутка            : 504  мс.

Внимание! Раздача ведётся путём добавления новых серий.
При каждом добавлении создаётся новый торрент. Чтобы начать докачку новой серии, пользователям необходимо сделать следующее:
1. Остановить скачивание,
2. Удалить старый торрент у себя из клиента (старые серии удалять не надо),
3. Скачать новый торрент и запустить его у себя в клиенте вместо старого, при этом указать клиенту путь в старую папку куда и должно происходить скачивание новых серий.
Ваш клиент при этом должен произвести хеширование (проверку) старой папки (если не производит сам - помогите ему сделать это), и будет докачивать только те серии которых у вас ещё нет. Старые серии при этом не удаляются, а продолжают раздаваться!
Если вы уже удалили старые серии, то предотвратить повторную закачку старых серий можно, отжав галочку в соответствующих местах при запуске нового торрента.
Семпл:

picpicpicpicpic
Для увеличения картинки щелкните мышкой по превью


02.11.15. Раздача обновлена!
Добавлена 10, последняя серия. Сезон представлен полностью.
Перекачайте торрент файл!

Этот торрент недоступен для скачивания без регистрации, однако доступен по публичной magnet-ссылке (источники с публичных трекеров). Перед использованием ссылки прочтите, пожалуйста Пользовательское соглашение, а также как можно дольше оставайтесь на раздаче! Для того, чтобы скачать сам торрент-файл (который видит больше источников), а также для того, чтобы поблагодарить релизера, вам необходимо зарегистрироваться. Если регистрироваться лень - вы можете также попробовать скачать релиз по нашим партнерским ссылкам ниже.

[underverse.su].t57575.torrent
Трекер: Зарегистрирован   [ 02.11.2015 07:59 ]  

Статус: проверено (by makkol at 02.11.2015 12:19)
Поблагодарили: пока никто не поблагодарил...
Тип торрента: публичный - доступные источники с открытых трекеров: 
Размер: 3,76 GB (занимает 0,86 DVDR, для записи нужно 1 болванка DVDR/RW)
 
 


Последний раз редактировалось: older (02.11.2015 07:59), всего редактировалось 5 раз(а)

older Пол:Муж

12-Окт-2015 17:15

12.10.15. Раздача обновлена!
Добавлены 2-7 серии.
Перекачайте торрент файл!

older Пол:Муж

16-Окт-2015 02:36

16.10.15. Раздача обновлена!
Добавлена 8 серия.
Перекачайте торрент файл!

older Пол:Муж

21-Окт-2015 07:50

21.10.15. Раздача обновлена!
Добавлена 9 серия.
Перекачайте торрент файл!

older Пол:Муж

02-Ноя-2015 07:59

02.11.15. Раздача обновлена!
Добавлена 10, последняя серия. Сезон представлен полностью.
Перекачайте торрент файл!

Яндекс.Метрика powered by Sphinx


В Н И М А Н И Е
Сайт не распространяет и не хранит электронные версии произведений, а лишь бесплатно и без коммерческой выгоды (не требуя взамен платы,
SMS и т.д.) предоставляет доступ к создаваемому пользователями каталогу ссылок на торрент-файлы, которые содержат только списки хеш-сумм.
Убедительная просьба с жалобами обращаться напрямую к пользователю, разместившему торрент файл.

Вверх