Loading...
Error

Континуум / Continuum / Сезоны 1-3 (1-36 серии из 36) (Пэт Уильямс, Уильям Варинг, Дэвид Фрэйзи) [2012-2014 г., фантастика, боевик, триллер, WEB-DLRip] MVO

Статистика раздачи
Размер:  17,07 GB   |    Зарегистрирован:  1 год 3 месяца   |    Скачан:  11 раз

Полного источника не было: 1 месяц 15 дней

Сидов:  0  |  0 KB/s  ]   Личеров:  0  |  0 KB/s  ]

* - сиды/пиры с внешних источников

   
 
Автор Сообщение

older Пол:Муж

26-Авг-2015 20:09

Континуум / Continuum / Сезоны 1-3 (1-36 серии из 36)


Год выпуска: 2012-2014
Жанр: фантастика, боевик, триллер
Страна: Канада
Режиссер: Пэт Уильямс, Уильям Варинг, Дэвид Фрэйзи
В ролях: Рэйчел Николс, Виктор Уэбстер, Эрик Кнудсен, Стефен Лобо, Ричард Хэрмон, Брайан Маркинсон, Дженнифер Спенс, Джон Генри Рирдон, Роджер Р. Кросс, Лекса Дойг и др.
Сюжет фильма:
Кира Кэмерон, уникальный специалист, и компьютерный гений по имени Садлер в недалеком прошлом будут пытаться остановить группу террористов-фанатиков: Попавшая в 2012-й год вместе с бегущими от властей экстремистами Кира устраивается обычным сотрудником в обычное отделение полиции - так начинается новый фантастический сериал, в котором герои будут перемещаться не только в пространстве, но и во времени.

Качество видео: WEB-DLRip

Продолжительность: ~ 00:44:00
Формат: AVI
Видео: XviD, 720х400, 1319 kbps
Аудио: русский, многоголосый закадровый [профессиональный], MP3 2.0, 128 kbps

Код:

Общее
Полное имя                               : \Continuum\Continuum 1 - LostFilm.TV\Continuum.S01E01.rus.LostFilm.TV.avi
Формат                                   : AVI
Формат/Информация                        : Audio Video Interleave
Размер файла                             : 462 Мбайт
Продолжительность                        : 44 м.
Общий поток                              : 1459 Кбит/сек
Программа кодирования                    : Nandub v1.0rc2
Библиотека кодирования                   : Nandub build 1853/release

Видео
Идентификатор                            : 0
Формат                                   : MPEG-4 Visual
Профиль формата                          : Simple@L3
Параметр BVOP формата                    : Нет
Параметр QPel формата                    : Нет
Параметр GMC формата                     : Без точки перехода
Параметр матрицы формата                 : Default (H.263)
Идентификатор кодека                     : XVID
Идентификатор кодека/Подсказка           : XviD
Продолжительность                        : 44 м.
Битрейт                                  : 1319 Кбит/сек
Ширина                                   : 720 пикселей
Высота                                   : 400 пикселей
Соотношение сторон                       : 16:9
Частота кадров                           : 23,976 кадра/сек
Цветовое пространство                    : YUV
Субдискретизация насыщенности            : 4:2:0
Битовая глубина                          : 8 бит
Тип развёртки                            : Прогрессивная
Метод сжатия                             : С потерями
Бит/(Пиксели*Кадры)                      : 0.191
Размер потока                            : 417 Мбайт (90%)
Библиотека кодирования                   : XviD 1.2.1 (UTC 2008-12-04)

Аудио
Идентификатор                            : 1
Формат                                   : MPEG Audio
Версия формата                           : Version 1
Профиль формата                          : Layer 3
Режим                                    : Joint stereo
Расширение режима                        : MS Stereo
Идентификатор кодека                     : 55
Идентификатор кодека/Подсказка           : MP3
Продолжительность                        : 44 м.
Вид битрейта                             : Постоянный
Битрейт                                  : 128 Кбит/сек
Каналы                                   : 2 канала
Частота                                  : 48,0 КГц
Метод сжатия                             : С потерями
Размер потока                            : 40,5 Мбайт (9%)
Выравнивание                             : Соединение по промежуткам
Продолжительность промежутка             : 24  мс. (0,58 видеокадр)
Время предзагрузки промежутка            : 480  мс.

Код:

Общее
Полное имя                               : \Continuum\Continuum 2 - LostFilm.TV\Continuum.S02E01.rus.LostFilm.TV.avi
Формат                                   : AVI
Формат/Информация                        : Audio Video Interleave
Размер файла                             : 510 Мбайт
Продолжительность                        : 44 м.
Режим общего битрейта                    : Переменный
Общий поток                              : 1615 Кбит/сек
Программа кодирования                    : Nandub v1.0rc2
Библиотека кодирования                   : Nandub build 1853/release

Видео
Идентификатор                            : 0
Формат                                   : MPEG-4 Visual
Профиль формата                          : Simple@L3
Параметр BVOP формата                    : Нет
Параметр QPel формата                    : Нет
Параметр GMC формата                     : Без точки перехода
Параметр матрицы формата                 : Default (H.263)
Идентификатор кодека                     : XVID
Идентификатор кодека/Подсказка           : XviD
Продолжительность                        : 44 м.
Битрейт                                  : 1414 Кбит/сек
Ширина                                   : 720 пикселей
Высота                                   : 400 пикселей
Соотношение сторон                       : 16:9
Частота кадров                           : 23,976 кадра/сек
Цветовое пространство                    : YUV
Субдискретизация насыщенности            : 4:2:0
Битовая глубина                          : 8 бит
Тип развёртки                            : Прогрессивная
Метод сжатия                             : С потерями
Бит/(Пиксели*Кадры)                      : 0.205
Размер потока                            : 447 Мбайт (88%)
Библиотека кодирования                   : XviD 1.2.1 (UTC 2008-12-04)

Аудио
Идентификатор                            : 1
Формат                                   : MPEG Audio
Версия формата                           : Version 1
Профиль формата                          : Layer 3
Режим                                    : Joint stereo
Идентификатор кодека                     : 55
Идентификатор кодека/Подсказка           : MP3
Продолжительность                        : 44 м.
Вид битрейта                             : Переменный
Битрейт                                  : 192 Кбит/сек
Каналы                                   : 2 канала
Частота                                  : 48,0 КГц
Метод сжатия                             : С потерями
Размер потока                            : 59,3 Мбайт (12%)
Выравнивание                             : Соединение по промежуткам
Продолжительность промежутка             : 24  мс. (0,58 видеокадр)
Время предзагрузки промежутка            : 511  мс.
Библиотека кодирования                   : LAME3.97b
Настройки программы                      : -m j -V 4 -q 3 -lowpass 18.6 --abr 192

 

Код:

Общее
Полное имя                               : \Continuum\Continuum 3 - LostFilm.TV\Continuum.S03E01.rus.LostFilm.TV.avi
Формат                                   : AVI
Формат/Информация                        : Audio Video Interleave
Размер файла                             : 434 Мбайт
Продолжительность                        : 43 м.
Режим общего битрейта                    : Переменный
Общий поток                              : 1383 Кбит/сек
Программа кодирования                    : Nandub v1.0rc2
Библиотека кодирования                   : Nandub build 1853/release

Видео
Идентификатор                            : 0
Формат                                   : MPEG-4 Visual
Профиль формата                          : Simple@L3
Параметр BVOP формата                    : Нет
Параметр QPel формата                    : Нет
Параметр GMC формата                     : Без точки перехода
Параметр матрицы формата                 : Default (H.263)
Идентификатор кодека                     : XVID
Идентификатор кодека/Подсказка           : XviD
Продолжительность                        : 43 м.
Битрейт                                  : 1184 Кбит/сек
Ширина                                   : 720 пикселей
Высота                                   : 400 пикселей
Соотношение сторон                       : 16:9
Частота кадров                           : 23,976 кадра/сек
Цветовое пространство                    : YUV
Субдискретизация насыщенности            : 4:2:0
Битовая глубина                          : 8 бит
Тип развёртки                            : Прогрессивная
Метод сжатия                             : С потерями
Бит/(Пиксели*Кадры)                      : 0.171
Размер потока                            : 372 Мбайт (86%)
Библиотека кодирования                   : XviD 1.2.1 (UTC 2008-12-04)

Аудио
Идентификатор                            : 1
Формат                                   : MPEG Audio
Версия формата                           : Version 1
Профиль формата                          : Layer 3
Режим                                    : Joint stereo
Идентификатор кодека                     : 55
Идентификатор кодека/Подсказка           : MP3
Продолжительность                        : 43 м.
Вид битрейта                             : Переменный
Битрейт                                  : 192 Кбит/сек
Каналы                                   : 2 канала
Частота                                  : 48,0 КГц
Метод сжатия                             : С потерями
Размер потока                            : 58,6 Мбайт (13%)
Выравнивание                             : Соединение по промежуткам
Продолжительность промежутка             : 24  мс. (0,58 видеокадр)
Время предзагрузки промежутка            : 539  мс.
Библиотека кодирования                   : LAME3.97b
Настройки программы                      : -m j -V 4 -q 3 -lowpass 18.6 --abr 192

 
Релиз группы:

picpicpicpicpic
Для увеличения картинки щелкните мышкой по превью

Этот торрент недоступен для скачивания без регистрации, однако доступен по публичной magnet-ссылке (источники с публичных трекеров). Перед использованием ссылки прочтите, пожалуйста Пользовательское соглашение, а также как можно дольше оставайтесь на раздаче! Для того, чтобы скачать сам торрент-файл (который видит больше источников), а также для того, чтобы поблагодарить релизера, вам необходимо зарегистрироваться. Если регистрироваться лень - вы можете также попробовать скачать релиз по нашим партнерским ссылкам ниже.

[underverse.su].t57497.torrent
Трекер: Зарегистрирован   [ 26.08.2015 20:09 ]  

Статус: проверено (by makkol at 27.08.2015 10:50)
Поблагодарили: пока никто не поблагодарил...
Тип торрента: публичный - доступные источники с открытых трекеров: 
Размер: 17,07 GB (занимает 3,9 DVDR, для записи нужно 4 болванки DVDR/RW)
 
 
Похожие темы
Форум Тема Автор Торрент Отв. Посл. сооб.
T Зарубежное кино [DVDRip, Low-Res HDRip, и т.д.] Континуум / Project Almanac (Дин Израэлайт) [2014 г., фантастика, триллер, HDRip] Dub [Чистый звук] + Original Паукан
82 | 1

0 | 476

50

18.05.2015 13:49

T Зарубежное кино [DVDRip, Low-Res HDRip, и т.д.] Континуум / Project Almanac (Дин Израэлайт) [2014 г., фантастика, триллер, HDRip] Dub [Чистый звук] Паукан
178 | 1

0 | 814

97

18.05.2015 13:52

Зарубежные сериалы Континуум / Continuum / Сезон 4 (1-6 серии из 6) (Пэт Уильямс, Уильям Варинг, Дэвид Фрэйзи) [2015 г., фантастика, боевик, триллер, WEB-DLRip] DVO + Original older
6 | 2

3 | 808

7

12.10.2015 17:18

T Зарубежное кино [HDDVDRip / BDRip / WEB-DL / HDTV 1080/720р] Континуум / Project Almanac (Дин Израэлайт) [2014 г., фантастика, триллер, BDRip 1080p] Dub + Original + Subs makkol
4 | 0

0 | 487

19

14.06.2015 22:43

T Новинки кино [CAMRip, TS, DVDScr, WP, TC] Континуум / Project Almanac (Дин Израэлайт) [2014 г., фантастика, триллер, CAMRip] MVO + AVO 90ytr90
0 | 0

0 | 1526

87

01.02.2015 09:39

Зарубежные сериалы [BD / Remux / BDRip / WEB-DL / HDTV 1080/720р] Континуум / Continuum / Сезон 1 / Серии 1-10 (10) (Пэт Уильямс, Уильям Варинг, Дэвид Фрэйзи) [2012 г., фантастика, триллер, BDRip 720р] MVO + DVO + Original Чертёнок
1 | 0

0 | 1066

15

30.05.2013 19:18


Яндекс.Метрика powered by Sphinx


В Н И М А Н И Е
Сайт не распространяет и не хранит электронные версии произведений, а лишь бесплатно и без коммерческой выгоды (не требуя взамен платы,
SMS и т.д.) предоставляет доступ к создаваемому пользователями каталогу ссылок на торрент-файлы, которые содержат только списки хеш-сумм.
Убедительная просьба с жалобами обращаться напрямую к пользователю, разместившему торрент файл.

Вверх