Loading...
Error

Континуум / Continuum / Сезон 4 (1-6 серии из 6) (Пэт Уильямс, Уильям Варинг, Дэвид Фрэйзи) [2015 г., фантастика, боевик, триллер, WEB-DLRip] DVO + Original

Статистика раздачи
Размер:  3,22 GB   |    Зарегистрирован:  1 год 1 месяц   |    Скачан:  7 раз

Полного источника не было: 1 месяц 15 дней

Сидов:  0  |  0 KB/s  ]   Личеров:  0  |  0 KB/s  ]

* - сиды/пиры с внешних источников

   
 
Автор Сообщение

older Пол:Муж

26-Авг-2015 19:41

Континуум / Continuum / Сезон 4


Год выпуска: 2015
Жанр: фантастика, боевик, триллер
Страна: Канада
Режиссер: Пэт Уильямс, Уильям Варинг, Дэвид Фрэйзи
В ролях: Рэйчел Николс, Виктор Уэбстер, Эрик Кнудсен, Стефен Лобо, Ричард Хэрмон, Брайан Маркинсон, Дженнифер Спенс, Джон Генри Рирдон, Роджер Р. Кросс, Лекса Дойг, Омари Ньютон, Кэйтлин Кромуэлл
Сюжет фильма:
Группа террористов-фанатиков, избежавшая казни в 2077 году, перемещается в наше время вместе с преследующим их полицейским Кирой Камерон. Кира Кэмерон, уникальный специалист, и компьютерный гений по имени Садлер в недалеком прошлом будут пытаться остановить группу террористов-фанатиков: Попавшая в 2012-й год вместе с бегущими от властей экстремистами Кира устраивается обычным сотрудником в обычное отделение полиции - так начинается новый фантастический сериал, в котором герои будут перемещаться не только в пространстве, но и во времени.

Качество видео: WEB-DLRip

Продолжительность: ~ 00:44:00
Формат: AVI
Видео: XviD, 720х400, 1447 kbps
Аудио #1: русский, двухголосый закадровый [профессиональный], MP3 2.0, 128 kbps
Аудио #2: английский, оригинал, MP3 2.0, 128 kbps
01. Lost Hours / Потерянные часы
02. Rush Hour / Час пик
03. Power Hour / Час силы
04. Zero Hour / Нулевой час
05. The Desperate Hours / Часы отчаяния
06. Final Hour / Последний час

Код:

Общее
Полное имя                               : \Континуум (сезон 4) Continuum (2015) WEB-DLRip - NewStudio\Continuum.s04e01.WEBDLRip.*другой трекер*.avi
Формат                                   : AVI
Формат/Информация                        : Audio Video Interleave
Размер файла                             : 550 Мбайт
Продолжительность                        : 44 м.
Общий поток                              : 1717 Кбит/сек
Программа кодирования                    : VirtualDubMod 1.5.10.2 (build 2540/release)
Библиотека кодирования                   : VirtualDubMod build 2540/release

Видео
Идентификатор                            : 0
Формат                                   : MPEG-4 Visual
Профиль формата                          : Advanced Simple@L5
Параметр BVOP формата                    : 2
Параметр QPel формата                    : Нет
Параметр GMC формата                     : Без точки перехода
Параметр матрицы формата                 : Default (MPEG)
Идентификатор кодека                     : XVID
Идентификатор кодека/Подсказка           : XviD
Продолжительность                        : 44 м.
Битрейт                                  : 1447 Кбит/сек
Ширина                                   : 720 пикселей
Высота                                   : 400 пикселей
Соотношение сторон                       : 16:9
Частота кадров                           : 23,976 кадра/сек
Цветовое пространство                    : YUV
Субдискретизация насыщенности            : 4:2:0
Битовая глубина                          : 8 бит
Тип развёртки                            : Прогрессивная
Метод сжатия                             : С потерями
Бит/(Пиксели*Кадры)                      : 0.210
Размер потока                            : 464 Мбайт (84%)
Библиотека кодирования                   : XviD 73

Аудио #1
Идентификатор                            : 1
Формат                                   : MPEG Audio
Версия формата                           : Version 1
Профиль формата                          : Layer 3
Идентификатор кодека                     : 55
Идентификатор кодека/Подсказка           : MP3
Продолжительность                        : 44 м.
Вид битрейта                             : Постоянный
Битрейт                                  : 128 Кбит/сек
Каналы                                   : 2 канала
Частота                                  : 48,0 КГц
Метод сжатия                             : С потерями
Размер потока                            : 41,0 Мбайт (7%)
Выравнивание                             : Соединение по промежуткам
Продолжительность промежутка             : 42  мс. (1,00 видеокадр)
Время предзагрузки промежутка            : 504  мс.

Аудио #2
Идентификатор                            : 2
Формат                                   : MPEG Audio
Версия формата                           : Version 1
Профиль формата                          : Layer 3
Режим                                    : Joint stereo
Расширение режима                        : MS Stereo
Идентификатор кодека                     : 55
Идентификатор кодека/Подсказка           : MP3
Продолжительность                        : 44 м.
Вид битрейта                             : Постоянный
Битрейт                                  : 128 Кбит/сек
Каналы                                   : 2 канала
Частота                                  : 48,0 КГц
Метод сжатия                             : С потерями
Размер потока                            : 41,0 Мбайт (7%)
Выравнивание                             : Соединение по промежуткам
Продолжительность промежутка             : 42  мс. (1,00 видеокадр)
Время предзагрузки промежутка            : 504  мс.
Библиотека кодирования                   : LAME3.99r
Настройки программы                      : -m j -V 4 -q 2 -lowpass 17 -b 128

Семпл:

Релиз группы:

picpicpicpicpic
Для увеличения картинки щелкните мышкой по превью


07.10.15. Раздача обновлена!
Добавлены 4-6, последние серии. Сезон представлен полностью.
Перекачайте торрент файл!

Этот торрент недоступен для скачивания без регистрации, однако доступен по публичной magnet-ссылке (источники с публичных трекеров). Перед использованием ссылки прочтите, пожалуйста Пользовательское соглашение, а также как можно дольше оставайтесь на раздаче! Для того, чтобы скачать сам торрент-файл (который видит больше источников), а также для того, чтобы поблагодарить релизера, вам необходимо зарегистрироваться. Если регистрироваться лень - вы можете также попробовать скачать релиз по нашим партнерским ссылкам ниже.

[underverse.su].t57496.torrent
Трекер: Зарегистрирован   [ 12.10.2015 17:25 ]  

Статус: проверено (by makkol at 12.10.2015 22:17)
Поблагодарили: пока никто не поблагодарил...
Тип торрента: публичный - доступные источники с открытых трекеров: 
Размер: 3,22 GB (занимает 0,74 DVDR, для записи нужно 1 болванка DVDR/RW)
 
 
Похожие темы
Форум Тема Автор Торрент Отв. Посл. сооб.
T Зарубежное кино [DVDRip, Low-Res HDRip, и т.д.] Континуум / Project Almanac (Дин Израэлайт) [2014 г., фантастика, триллер, HDRip] Dub [Чистый звук] + Original Паукан
82 | 1

0 | 476

50

18.05.2015 13:49

T Зарубежное кино [DVDRip, Low-Res HDRip, и т.д.] Континуум / Project Almanac (Дин Израэлайт) [2014 г., фантастика, триллер, HDRip] Dub [Чистый звук] Паукан
178 | 1

0 | 814

97

18.05.2015 13:52

Зарубежные сериалы Континуум / Continuum / Сезоны 1-3 (1-36 серии из 36) (Пэт Уильямс, Уильям Варинг, Дэвид Фрэйзи) [2012-2014 г., фантастика, боевик, триллер, WEB-DLRip] MVO older
5 | 4

0 | 370

11

26.08.2015 20:09

T Зарубежное кино [HDDVDRip / BDRip / WEB-DL / HDTV 1080/720р] Континуум / Project Almanac (Дин Израэлайт) [2014 г., фантастика, триллер, BDRip 1080p] Dub + Original + Subs makkol
4 | 0

0 | 487

19

14.06.2015 22:43

T Новинки кино [CAMRip, TS, DVDScr, WP, TC] Континуум / Project Almanac (Дин Израэлайт) [2014 г., фантастика, триллер, CAMRip] MVO + AVO 90ytr90
0 | 0

0 | 1526

87

01.02.2015 09:39

Зарубежные сериалы [BD / Remux / BDRip / WEB-DL / HDTV 1080/720р] Континуум / Continuum / Сезон 1 / Серии 1-10 (10) (Пэт Уильямс, Уильям Варинг, Дэвид Фрэйзи) [2012 г., фантастика, триллер, BDRip 720р] MVO + DVO + Original Чертёнок
1 | 0

0 | 1066

15

30.05.2013 19:18



Последний раз редактировалось: older (12.10.2015 17:26), всего редактировалось 4 раз(а)

older Пол:Муж

15-Сен-2015 06:02

15.09.15. Раздача обновлена!
Добавлена 2 серия.
Перекачайте торрент файл!

older Пол:Муж

25-Сен-2015 06:50

25.09.15. Раздача обновлена!
Добавлена 3 серия.
Перекачайте торрент файл!

older Пол:Муж

12-Окт-2015 17:18

07.10.15. Раздача обновлена!
Добавлены 4-6, последние серии. Сезон представлен полностью.
Перекачайте торрент файл!

Яндекс.Метрика powered by Sphinx


В Н И М А Н И Е
Сайт не распространяет и не хранит электронные версии произведений, а лишь бесплатно и без коммерческой выгоды (не требуя взамен платы,
SMS и т.д.) предоставляет доступ к создаваемому пользователями каталогу ссылок на торрент-файлы, которые содержат только списки хеш-сумм.
Убедительная просьба с жалобами обращаться напрямую к пользователю, разместившему торрент файл.

Вверх