Loading...
Error

Ответный удар / Strike Back / Сезон 5 (1-2 серии из 10) (Дэниэл Персивал, Пол Вильшурст, Билл Иглз) [2015 г., боевик, триллер, драма, HDTVRip] MVO

Статистика раздачи
Размер:  1,16 GB   |    Зарегистрирован:  1 год 3 месяца   |    Скачан:  1 раз

Полного источника не было: 1 год 2 месяца

Сидов:  0  |  0 KB/s  ]   Личеров:  0  |  0 KB/s  ]

* - сиды/пиры с внешних источников

   
 
Автор Сообщение

older Пол:Муж

26-Авг-2015 19:06

Ответный удар / Strike Back / Сезон 5 (1-2 серии из 10)


Год выпуска: 2015
Жанр: боевик, триллер, драма
Страна: Великобритания
Режиссер: Дэниэл Персивал, Пол Вильшурст, Билл Иглз
В ролях: Филип Уинчестер, Салливан Степлтон, Мишель Лукес, Рашан Стоун, Рона Митра, Аманда Милинг, Лайам Гэрриган, Робсон Грин, Джими Мистри, Милона Джексон
Сюжет фильма:
Джон Портер накануне вторжения в Ирак в 2003 году руководит специальным подразделением в операции по спасению заложника в центре Басры. Однако, результатом операции становится катастрофический поворот событий для него и Коллинсона. У Портера, страдающего чувством вины, спустя 7 лет появляется возможность вернуться в Ирак и попытаться все исправить. Спустя годы, Портер и Коллинсон столкнутся снова.

Качество видео: HDTVRip

Продолжительность: ~ 00:44:00
Формат: AVI
Видео: XviD, 720х400, 1661 kbps
Аудио: русский, многоголосый закадровый [профессиональный], AC3 2.0, 192 kbps - Amedia

Код:

Общее
Полное имя                               : \Strike.Back.S05.HDTVRip.Generalfilm\Strike.Back.S05E01.HDTVRip.Generalfilm.avi
Формат                                   : AVI
Формат/Информация                        : Audio Video Interleave
Размер файла                             : 594 Мбайт
Продолжительность                        : 44 м.
Общий поток                              : 1862 Кбит/сек
Программа кодирования                    : VirtualDubMod 1.5.10.2 (build 2540/release)
Библиотека кодирования                   : VirtualDubMod build 2540/release

Видео
Идентификатор                            : 0
Формат                                   : MPEG-4 Visual
Профиль формата                          : Advanced Simple@L5
Параметр BVOP формата                    : 1
Параметр QPel формата                    : Нет
Параметр GMC формата                     : Без точки перехода
Параметр матрицы формата                 : Default (MPEG)
Идентификатор кодека                     : XVID
Идентификатор кодека/Подсказка           : XviD
Продолжительность                        : 44 м.
Битрейт                                  : 1661 Кбит/сек
Ширина                                   : 720 пикселей
Высота                                   : 400 пикселей
Соотношение сторон                       : 16:9
Частота кадров                           : 25,000 кадров/сек
Цветовое пространство                    : YUV
Субдискретизация насыщенности            : 4:2:0
Битовая глубина                          : 8 бит
Тип развёртки                            : Прогрессивная
Метод сжатия                             : С потерями
Бит/(Пиксели*Кадры)                      : 0.231
Размер потока                            : 529 Мбайт (89%)
Библиотека кодирования                   : XviD 73

Аудио
Идентификатор                            : 1
Формат                                   : AC-3
Формат/Информация                        : Audio Coding 3
Расширение режима                        : CM (complete main)
Параметр Endianness формата              : Big
Идентификатор кодека                     : 2000
Продолжительность                        : 44 м.
Вид битрейта                             : Постоянный
Битрейт                                  : 192 Кбит/сек
Каналы                                   : 2 канала
Расположение каналов                     : Front: L R
Частота                                  : 48,0 КГц
Битовая глубина                          : 16 бит
Метод сжатия                             : С потерями
Размер потока                            : 61,2 Мбайт (10%)
Выравнивание                             : Разделение по промежуткам
Продолжительность промежутка             : 40  мс. (1,00 видеокадр)
Время предзагрузки промежутка            : 500  мс.

Релиз группы:

picpicpicpicpic
Для увеличения картинки щелкните мышкой по превью

Этот торрент недоступен для скачивания без регистрации, однако доступен по публичной magnet-ссылке (источники с публичных трекеров). Перед использованием ссылки прочтите, пожалуйста Пользовательское соглашение, а также как можно дольше оставайтесь на раздаче! Для того, чтобы скачать сам торрент-файл (который видит больше источников), а также для того, чтобы поблагодарить релизера, вам необходимо зарегистрироваться. Если регистрироваться лень - вы можете также попробовать скачать релиз по нашим партнерским ссылкам ниже.

[underverse.su].t57494.torrent
Трекер: Зарегистрирован   [ 26.08.2015 19:06 ]  

Статус: T временная (by makkol at 27.08.2015 10:45)
Поблагодарили: пока никто не поблагодарил...
Тип торрента: публичный - доступные источники с открытых трекеров: 
Размер: 1,16 GB (занимает 0,27 DVDR, для записи нужно 1 болванка DVDR/RW)
 
 
Похожие темы
Форум Тема Автор Торрент Отв. Посл. сооб.
Зарубежные сериалы Ответный удар: Теневая война / Strike back: Shadow Warfare [сезон 1-4 / серии 01-36 (36)] (Дэниэл Персивал, Пол Вильшурст, Билл Иглз) [2010-2013 гг., боевик, триллер, драма, HDRip / HDTVRip] MVO +... 90ytr90
1 | 4

0 | 1594

17

09.11.2013 13:50

Зарубежные сериалы [BD / Remux / BDRip / WEB-DL / HDTV 1080/720р] Ответный удар: Теневая война / Strike back: Shadow Warfare [сезон 4 / серии 01-10 (10)] (Дэниэл Персивал, Пол Вильшурст, Билл Иглз) [2013 г., боевик, триллер, драма, HDTVRip 720p] MVO (BaibaKo) +... 90ytr90
3 | 0

0 | 1240

10

09.11.2013 09:28


Яндекс.Метрика powered by Sphinx


В Н И М А Н И Е
Сайт не распространяет и не хранит электронные версии произведений, а лишь бесплатно и без коммерческой выгоды (не требуя взамен платы,
SMS и т.д.) предоставляет доступ к создаваемому пользователями каталогу ссылок на торрент-файлы, которые содержат только списки хеш-сумм.
Убедительная просьба с жалобами обращаться напрямую к пользователю, разместившему торрент файл.

Вверх