Loading...
Error

Разлом Сан-Андреас / San Andreas (Брэд Пейтон) [2015 г., боевик, триллер, драма, WEB-DLRip] Dub (звук с TS)

Статистика раздачи
Размер:  1,45 GB   |    Зарегистрирован:  1 год 3 месяца   |    Скачан:  48 раз

Полного источника не было: 3 месяца 9 дней

Сидов:  0  |  0 KB/s  ]   Личеров:  0  |  0 KB/s  ]

* - сиды/пиры с внешних источников

   
 
Автор Сообщение

makkol Пол:Муж

26-Авг-2015 14:14

Разлом Сан-Андреас / San Andreas


Год выпуска: 2015
Жанр: боевик, триллер, драма
Производство: США [Warner Bros., Village Roadshow Pictures, New Line Cinema]
Режиссер: Брэд Пейтон
В ролях: Дуэйн Джонсон, Карла Гуджино, Александра Даддарио, Йоан Гриффит, Арчи Панджаби, Пол Джаматти, Хьюго Джонстон-Барт, Арт Паркинсон, Уилл Юн Ли, Кайли Миноуг
Сюжет фильма:
Рэй — пилот спасательного вертолета, который всю свою жизнь помогал другим людям. За все время работы он насмотрелся на множество жутких вещей и не раз оказывался в очень сложных ситуациях. Несмотря на все преграды он спешил на помощь, даже не предполагая, что самое страшное ждет его впереди. На Калифорнию обрушивается мощное землетрясение, в результате которого гибнут сотни людей и образовывается огромная трещина в земле. Во всеобщем хаосе Рэю предстоит отыскать свою дочь, но сделать это будет очень непросто. В надежде, что его ребенок все еще жив, он отправляется в смертельно опасное путешествие через весь штат.

  • Мировая премьера: 21 мая 2015
  • Российская премьера: 28 мая 2015
  • Релиз на DVD и Blu-Ray: 8 октября 2015


Качество видео: WEB-DLRip

Продолжительность: 01:54:24
Формат: AVI
Видео: XviD, 720x304 (2.35:1), 23.976 fps, 1572 kbps
Аудио: русский, дублированный (звук с TS), AC3 2.0, 48 kHz, 192 kbps

Код:

Общее
Полное имя                               : Razlom.San-Andreas.2015.Dt.WEB-DLRip.avi
Формат                                   : AVI
Формат/Информация                        : Audio Video Interleave
Размер файла                             : 1,42 Гбайт
Продолжительность                        : 1 ч. 54 м.
Общий поток                              : 1773 Кбит/сек
Программа кодирования                    : VirtualDubMod 1.5.10.3 | | (build 2550/release)
Библиотека кодирования                   : VirtualDubMod build 2550/release

Видео
Идентификатор                            : 0
Формат                                   : MPEG-4 Visual
Профиль формата                          : Advanced Simple@L5
Параметр BVOP формата                    : 2
Параметр QPel формата                    : Нет
Параметр GMC формата                     : Без точки перехода
Параметр матрицы формата                 : Default (H.263)
Режим смешивания                         : Сжатый битовый поток
Идентификатор кодека                     : XVID
Идентификатор кодека/Подсказка           : XviD
Продолжительность                        : 1 ч. 54 м.
Битрейт                                  : 1572 Кбит/сек
Ширина                                   : 720 пикселей
Высота                                   : 304 пикселя
Соотношение сторон                       : 2,35:1
Частота кадров                           : 23,976 кадра/сек
Цветовое пространство                    : YUV
Субдискретизация насыщенности            : 4:2:0
Битовая глубина                          : 8 бит
Тип развёртки                            : Прогрессивная
Метод сжатия                             : С потерями
Бит/(Пиксели*Кадры)                      : 0.300
Размер потока                            : 1,26 Гбайт (89%)
Библиотека кодирования                   : XviD 66

Аудио
Идентификатор                            : 1
Формат                                   : AC-3
Формат/Информация                        : Audio Coding 3
Расширение режима                        : CM (complete main)
Параметр Endianness формата              : Big
Идентификатор кодека                     : 2000
Продолжительность                        : 1 ч. 54 м.
Вид битрейта                             : Постоянный
Битрейт                                  : 192 Кбит/сек
Каналы                                   : 2 канала
Расположение каналов                     : Front: L R
Частота                                  : 48,0 КГц
Метод сжатия                             : С потерями
Размер потока                            : 157 Мбайт (11%)
Выравнивание                             : Разделение по промежуткам
Продолжительность промежутка             : 42  мс. (1,00 видеокадр)
Время предзагрузки промежутка            : 500  мс.
picpicpicpicpic
Для увеличения картинки щелкните мышкой по превью

Этот торрент недоступен для скачивания без регистрации, однако доступен по публичной magnet-ссылке (источники с публичных трекеров). Перед использованием ссылки прочтите, пожалуйста Пользовательское соглашение, а также как можно дольше оставайтесь на раздаче! Для того, чтобы скачать сам торрент-файл (который видит больше источников), а также для того, чтобы поблагодарить релизера, вам необходимо зарегистрироваться. Если регистрироваться лень - вы можете также попробовать скачать релиз по нашим партнерским ссылкам ниже.

[underverse.su].t57489.torrent
Трекер: Зарегистрирован   [ 26.08.2015 14:14 ]  

Статус: T временная (by makkol at 26.08.2015 15:06)
Поблагодарили: 1 человек
Тип торрента: публичный - доступные источники с открытых трекеров: 
Размер: 1,45 GB (занимает 1/3 DVDR, для записи нужно 1 болванка DVDR/RW)
 
 
Похожие темы
Форум Тема Автор Торрент Отв. Посл. сооб.
T Зарубежное кино [DVDRip, Low-Res HDRip, и т.д.] Разлом Сан-Андреас / San Andreas (Брэд Пейтон) [2015 г., боевик, триллер, драма, WEB-DLRip] Dub (Line) makkol
618 | 11

1 | 809

64

21.09.2015 11:44

Зарубежное кино [DVDRip, Low-Res HDRip, и т.д.] Разлом Сан-Андреас / San Andreas (Брэд Пейтон) [2015 г., боевик, триллер, драма, HDRip] Dub makkol
2 | 0

0 | 666

77

24.09.2015 22:20

T Зарубежное кино [HDDVDRip / BDRip / WEB-DL / HDTV 1080/720р] Разлом Сан-Андреас / San Andreas (Брэд Пейтон) [2015 г., боевик, триллер, драма, WEB-DL 720p] Dub (звук с TS) + Original + Subs (Eng) makkol
2 | 0

0 | 732

65

26.08.2015 14:24

T Зарубежное кино [HDDVDRip / BDRip / WEB-DL / HDTV 1080/720р] Разлом Сан-Андреас / San Andreas (Брэд Пейтон) [2015 г., боевик, триллер, драма, WEB-DL 720p] Dub (Line) + Original makkol
49 | 0

1 | 557

31

10.09.2015 10:17

T Зарубежное кино [HDDVDRip / BDRip / WEB-DL / HDTV 1080/720р] Разлом Сан-Андреас / San Andreas (Брэд Пейтон) [2015 г., боевик, триллер, драма, WEB-DL 1080p] Dub (Line) + Original makkol
168 | 1

0 | 666

60

10.09.2015 10:14

Зарубежное кино [HDDVDRip / BDRip / WEB-DL / HDTV 1080/720р] Разлом Сан-Андреас / San Andreas (Брэд Пейтон) [2015 г., боевик, триллер, драма, BDRip 720p] Dub + Original makkol
3 | 0

1 | 783

52

28.09.2015 22:08

Зарубежное кино [HDDVDRip / BDRip / WEB-DL / HDTV 1080/720р] Разлом Сан-Андреас / San Andreas (Брэд Пейтон) [2015 г., боевик, триллер, драма, BDRip 1080p] Dub + Original + Subs makkol
50 | 2

0 | 837

39

26.09.2015 10:14

T Новинки кино [CAMRip, TS, DVDScr, WP, TC] Разлом Сан-Андреас / San Andreas (Брэд Пейтон) [2015 г., боевик, триллер, драма, TS] Dub Паукан
120 | 2

1 | 1725

181

29.06.2015 14:03


Яндекс.Метрика powered by Sphinx


В Н И М А Н И Е
Сайт не распространяет и не хранит электронные версии произведений, а лишь бесплатно и без коммерческой выгоды (не требуя взамен платы,
SMS и т.д.) предоставляет доступ к создаваемому пользователями каталогу ссылок на торрент-файлы, которые содержат только списки хеш-сумм.
Убедительная просьба с жалобами обращаться напрямую к пользователю, разместившему торрент файл.

Вверх