Loading...
Error

Чёрные Паруса / Black Sails / Сезон 2 (1-10 серии из 10) (Стив Бойум, Лукас Эттлин, Нил Маршалл) [2015 г., драма, приключения, WEB-DLRip] MVO + Original

Статистика раздачи
Размер:  7,03 GB   |    Зарегистрирован:  1 год 3 месяца   |    Скачан:  15 раз

Полного источника не было: 16 дней

Сидов:  0  |  0 KB/s  ]   Личеров:  0  |  0 KB/s  ]

* - сиды/пиры с внешних источников

   
 
Автор Сообщение

older Пол:Муж

26-Авг-2015 07:50




Чёрные Паруса / Black Sails / Сезон 2 (1-10 серии из 10)


Год выпуска: 2015
Жанр: драма, приключения
Страна: США , ЮАР
Режиссер: Стив Бойум, Лукас Эттлин, Нил Маршалл
В ролях: Тоби Стивенс, Ханна Нью, Люк Арнольд, Зэк Макгоун, Тоби Шмитц, Клара Пэджет, Марк Райан, Хаким Кае-Казим, Дилан Скьюс, Шон Майкл и др.
Сюжет фильма:
Капитан Флинт рискнул всем и выследил корабли с сокровищами, но уже в качестве пленного на корабле, захваченном бывшими матросами. На этот раз Джону Сильверу повезло меньше, и его тоже ждет гильотина. Элеонора Гатри хочет вернуть себе власть на острове, где Макс теперь управляющая борделем под покровительством Рэкхэма и Энни Бэнни. Капитан Чарльз Вэйн обрел новую силу и новую команду – похоже, его теперь никто не остановит на пути к господству в свободных морях. И что бы ни случилось дальше, это будет по-прежнему интересно, захватывающе и красиво!

Качество видео: WEB-DLRip

Продолжительность: ~ 00:55:00
Формат: AVI
Видео: XviD, 720х400, 1536 kbps
Аудио #1: русский, многоголосый закадровый [профессиональный], MP3 2.0, 128 kbps - LostFilm
Аудио #2: английский, оригинал, MP3 2.0, 128 kbps
Субтитры #1: тип: внешние, русский, формат: SRT
Субтитры #2: тип: внешние, английский, формат: SRT

Код:

Общее
Полное имя                               : \Black Sails (S02) LostFilm (webdlrip)\Black.Sails.s02e01.XviD.LostFilm.[qqss44].avi
Формат                                   : AVI
Формат/Информация                        : Audio Video Interleave
Размер файла                             : 719 Мбайт
Продолжительность                        : 55 м.
Общий поток                              : 1806 Кбит/сек
Программа кодирования                    : VirtualDubMod 1.5.10.3 | www.virtualdub-fr.org || (build 2550/release)
Библиотека кодирования                   : VirtualDubMod build 2550/release

Видео
Идентификатор                            : 0
Формат                                   : MPEG-4 Visual
Профиль формата                          : Advanced Simple@L5
Параметр BVOP формата                    : 1
Параметр QPel формата                    : Нет
Параметр GMC формата                     : Без точки перехода
Параметр матрицы формата                 : Default (MPEG)
Идентификатор кодека                     : XVID
Идентификатор кодека/Подсказка           : XviD
Продолжительность                        : 55 м.
Битрейт                                  : 1536 Кбит/сек
Ширина                                   : 720 пикселей
Высота                                   : 400 пикселей
Соотношение сторон                       : 16:9
Частота кадров                           : 23,976 кадра/сек
Цветовое пространство                    : YUV
Субдискретизация насыщенности            : 4:2:0
Битовая глубина                          : 8 бит
Тип развёртки                            : Прогрессивная
Метод сжатия                             : С потерями
Бит/(Пиксели*Кадры)                      : 0.222
Размер потока                            : 611 Мбайт (85%)
Библиотека кодирования                   : XviD 73

Аудио #1
Идентификатор                            : 1
Формат                                   : MPEG Audio
Версия формата                           : Version 1
Профиль формата                          : Layer 3
Режим                                    : Joint stereo
Расширение режима                        : MS Stereo
Идентификатор кодека                     : 55
Идентификатор кодека/Подсказка           : MP3
Продолжительность                        : 55 м.
Вид битрейта                             : Постоянный
Битрейт                                  : 128 Кбит/сек
Каналы                                   : 2 канала
Частота                                  : 48,0 КГц
Метод сжатия                             : С потерями
Размер потока                            : 51,0 Мбайт (7%)
Выравнивание                             : Соединение по промежуткам
Продолжительность промежутка             : 42  мс. (1,00 видеокадр)
Время предзагрузки промежутка            : 504  мс.

Аудио #2
Идентификатор                            : 2
Формат                                   : MPEG Audio
Версия формата                           : Version 1
Профиль формата                          : Layer 3
Режим                                    : Joint stereo
Расширение режима                        : MS Stereo
Идентификатор кодека                     : 55
Идентификатор кодека/Подсказка           : MP3
Продолжительность                        : 55 м.
Вид битрейта                             : Постоянный
Битрейт                                  : 128 Кбит/сек
Каналы                                   : 2 канала
Частота                                  : 48,0 КГц
Метод сжатия                             : С потерями
Размер потока                            : 51,0 Мбайт (7%)
Выравнивание                             : Соединение по промежуткам
Продолжительность промежутка             : 42  мс. (1,00 видеокадр)
Время предзагрузки промежутка            : 504  мс.

Семпл:
рип, работа со звуком, синхронизация субтитров - qqss44
субтитры - Амедиа
- на непереведенный фрагмент "в предыдущих сериях" - вставлена озвучка Амедиа
picpicpicpicpic
Для увеличения картинки щелкните мышкой по превью

Этот торрент недоступен для скачивания без регистрации, однако доступен по публичной magnet-ссылке (источники с публичных трекеров). Перед использованием ссылки прочтите, пожалуйста Пользовательское соглашение, а также как можно дольше оставайтесь на раздаче! Для того, чтобы скачать сам торрент-файл (который видит больше источников), а также для того, чтобы поблагодарить релизера, вам необходимо зарегистрироваться. Если регистрироваться лень - вы можете также попробовать скачать релиз по нашим партнерским ссылкам ниже.

[underverse.su].t57476.torrent
Трекер: Зарегистрирован   [ 26.08.2015 07:50 ]  

Статус: проверено (by makkol at 26.08.2015 13:52)
Поблагодарили: 1 человек
Тип торрента: публичный - доступные источники с открытых трекеров: 
Размер: 7,03 GB (занимает 1,6 DVDR, для записи нужно 2 болванки DVDR/RW)
 
 
Похожие темы
Форум Тема Автор Торрент Отв. Посл. сооб.
Зарубежные сериалы Черные паруса / Black Sails / Сезон: 1 / Серии: 1-8 из 08 (Нил Маршалл, Сэм Миллер, Т.Дж. Скотт) [2014 г., драма, приключения, HDTVRip] MVO garry
1 | 5

8 | 4504

65

09.04.2014 19:01


Яндекс.Метрика powered by Sphinx


В Н И М А Н И Е
Сайт не распространяет и не хранит электронные версии произведений, а лишь бесплатно и без коммерческой выгоды (не требуя взамен платы,
SMS и т.д.) предоставляет доступ к создаваемому пользователями каталогу ссылок на торрент-файлы, которые содержат только списки хеш-сумм.
Убедительная просьба с жалобами обращаться напрямую к пользователю, разместившему торрент файл.

Вверх