Loading...
Error

Ошибки прошлого / Rectify / Сезон 2 (1-10 серии из 10) (Стивен Джилленхол, Билл Джирхарт, Николь Кэссел) [2014 г., драма, HDRip] MVO + Original

Статистика раздачи
Размер:  4,49 GB   |    Зарегистрирован:  1 год 3 месяца   |    Скачан:  3 раза

Полного источника не было: 3 месяца 5 дней

Сидов:  0  |  0 KB/s  ]   Личеров:  0  |  0 KB/s  ]

* - сиды/пиры с внешних источников

   
 
Автор Сообщение

older Пол:Муж

26-Авг-2015 00:27

Ошибки прошлого / Rectify / Сезон 2 (1-10 серии из 10)


Год выпуска: 2014
Жанр: драма
Страна: США
Режиссер: Стивен Джилленхол, Билл Джирхарт, Николь Кэссел
В ролях: Аден Янг, Дж. Смит-Камерон, Клейн Кроуфорд, Люк Кирби, Джейк Остин Уолкер, Майкл О’Нил и др.
Сюжет фильма:
Проведя 19 лет в камере смертников за изнасилование и убийство своей 16-летней девушки, Дэниел Холден возвращается домой. Его приговор был отменен из-за возникновения новых доказательств ДНК. Проведя большую часть сознательной жизни в ожидании смерти, Дэниел должен теперь заново научиться жить.

Качество видео: HDRip

Продолжительность: ~ 00:46:00
Формат: AVI
Видео: XviD, 720х400, 1091 kbps
Аудио #1: русский, многоголосый закадровый [любительский], MP3 2.0, 128 kbps - To4ka
Аудио #2: английский, оригинал, MP3 2.0, 128 kbps

Код:

Общее
Полное имя                               : \Rectify.s02.HDRip.Rus.Eng.[To4kaTV]\Rectify.s02e01.HDRip.Rus.Eng.[To4kaTV].avi
Формат                                   : AVI
Формат/Информация                        : Audio Video Interleave
Размер файла                             : 450 Мбайт
Продолжительность                        : 46 м.
Общий поток                              : 1361 Кбит/сек
Программа кодирования                    : VirtualDubModRus 1.5.10.2 (build 2542/release)
Библиотека кодирования                   : VirtualDubMod build 2542/release

Видео
Идентификатор                            : 0
Формат                                   : MPEG-4 Visual
Профиль формата                          : Advanced Simple@L5
Параметр BVOP формата                    : 1
Параметр QPel формата                    : Нет
Параметр GMC формата                     : Без точки перехода
Параметр матрицы формата                 : Default (MPEG)
Идентификатор кодека                     : XVID
Идентификатор кодека/Подсказка           : XviD
Продолжительность                        : 46 м.
Битрейт                                  : 1091 Кбит/сек
Ширина                                   : 720 пикселей
Высота                                   : 400 пикселей
Соотношение сторон                       : 16:9
Частота кадров                           : 23,976 кадра/сек
Цветовое пространство                    : YUV
Субдискретизация насыщенности            : 4:2:0
Битовая глубина                          : 8 бит
Тип развёртки                            : Прогрессивная
Метод сжатия                             : С потерями
Бит/(Пиксели*Кадры)                      : 0.158
Размер потока                            : 361 Мбайт (80%)
Библиотека кодирования                   : XviD 1.2.1 (UTC 2008-12-04)

Аудио #1
Идентификатор                            : 1
Формат                                   : MPEG Audio
Версия формата                           : Version 1
Профиль формата                          : Layer 3
Режим                                    : Joint stereo
Расширение режима                        : MS Stereo
Идентификатор кодека                     : 55
Идентификатор кодека/Подсказка           : MP3
Продолжительность                        : 46 м.
Вид битрейта                             : Постоянный
Битрейт                                  : 128 Кбит/сек
Каналы                                   : 2 канала
Частота                                  : 48,0 КГц
Метод сжатия                             : С потерями
Размер потока                            : 42,4 Мбайт (9%)
Выравнивание                             : Соединение по промежуткам
Продолжительность промежутка             : 42  мс. (1,00 видеокадр)
Время предзагрузки промежутка            : 504  мс.

Аудио #2
Идентификатор                            : 2
Формат                                   : MPEG Audio
Версия формата                           : Version 1
Профиль формата                          : Layer 3
Режим                                    : Joint stereo
Расширение режима                        : MS Stereo
Идентификатор кодека                     : 55
Идентификатор кодека/Подсказка           : MP3
Продолжительность                        : 46 м.
Вид битрейта                             : Постоянный
Битрейт                                  : 128 Кбит/сек
Каналы                                   : 2 канала
Частота                                  : 48,0 КГц
Метод сжатия                             : С потерями
Размер потока                            : 42,4 Мбайт (9%)
Выравнивание                             : Соединение по промежуткам
Продолжительность промежутка             : 42  мс. (1,00 видеокадр)
Время предзагрузки промежутка            : 504  мс.
Библиотека кодирования                   : LAME3.99r
Настройки программы                      : -m j -V 4 -q 2 -lowpass 17 -b 128

Релиз группы:

picpicpicpicpic
Для увеличения картинки щелкните мышкой по превью

Этот торрент недоступен для скачивания без регистрации, однако доступен по публичной magnet-ссылке (источники с публичных трекеров). Перед использованием ссылки прочтите, пожалуйста Пользовательское соглашение, а также как можно дольше оставайтесь на раздаче! Для того, чтобы скачать сам торрент-файл (который видит больше источников), а также для того, чтобы поблагодарить релизера, вам необходимо зарегистрироваться. Если регистрироваться лень - вы можете также попробовать скачать релиз по нашим партнерским ссылкам ниже.

[underverse.su].t57472.torrent
Трекер: Зарегистрирован   [ 26.08.2015 00:27 ]  

Статус: проверено (by makkol at 26.08.2015 13:45)
Поблагодарили: пока никто не поблагодарил...
Тип торрента: публичный - доступные источники с открытых трекеров: 
Размер: 4,49 GB (занимает 1,03 DVDR, для записи нужно 2 болванки DVDR/RW)
 
 
Похожие темы
Форум Тема Автор Торрент Отв. Посл. сооб.
Зарубежные сериалы Ошибки прошлого / Rectify / Сезон 1 (1-6 серии из 6) (Стивен Джилленхол, Билл Джирхарт, Николь Кэссел) [2013 г., драма, WEB-DLRip] MVO + Original older
18 | 7

0 | 517

2

25.08.2015 23:21

T Зарубежные сериалы Ошибки прошлого / Rectify / Сезон 3 (1-3 серии из 6) (Стивен Джилленхол, Билл Джирхарт, Николь Кэссел) [2015 г., драма, WEB-DLRip] MVO + Original older
1 | 1

0 | 420

3

26.08.2015 05:55


Яндекс.Метрика powered by Sphinx


В Н И М А Н И Е
Сайт не распространяет и не хранит электронные версии произведений, а лишь бесплатно и без коммерческой выгоды (не требуя взамен платы,
SMS и т.д.) предоставляет доступ к создаваемому пользователями каталогу ссылок на торрент-файлы, которые содержат только списки хеш-сумм.
Убедительная просьба с жалобами обращаться напрямую к пользователю, разместившему торрент файл.

Вверх