Loading...
Error

Красотки в бегах / Hot Pursuit (Энн Флетчер) [2015 г., боевик, комедия, HDRip] Dub

Статистика раздачи
Размер:  1,37 GB   |    Зарегистрирован:  1 год 3 месяца   |    Скачан:  30 раз

Полного источника не было: 4 дня

Сидов:  0  |  0 KB/s  ]   Личеров:  0  |  0 KB/s  ]

* - сиды/пиры с внешних источников

   
 
Автор Сообщение

makkol Пол:Муж

25-Авг-2015 22:32

Красотки в бегах / Hot Pursuit
«Вооружены и типа опасны»


Год выпуска: 2015
Жанр: боевик, комедия
Производство: США [Warner Bros. Pictures, New Line Cinema, Metro-Goldwyn-Mayer (MGM), Pacific Standard]
Режиссер: Энн Флетчер
В ролях: Риз Уизерспун, София Вергара, Мэттью Дель Негро, Майкл Мосли, Роберт Казински, Ричард Т. Джонс, Бенни Нивз, Майкл Рэй Эскамиллья, Хоакин Косио, Джон Кэрролл Линч
Сюжет фильма:
Добросовестный коп Роуз Купер, дочка шерифа из Сан-Розарио, прилежно служит в архиве департамента и мечтает об опасном спецзадании. Мечты героини сбываются, когда начальство вынужденно доверяет ей охрану важной свидетельницы – жены техасского криминального авторитета. Филипе Риве согласился сдать влиятельного наркобарона, поэтому вместе с супругой Даниэлой теперь охраняется полицией. Офицер Купер клянется выполнить поручение и сопроводить мексиканскую красотку в Даллас, однако подручные наркомафии вносят в полицейские планы свои коррективы. Перед самой поездкой нанятые киллеры убивают Филипе Риве и его охранника, агента ФБР. Выбравшись из-под обстрела, отважная леди-коп решает не отменять опасную командировку и доставить взбалмошную Даниэлу по месту назначения. Вскоре выясняется, что хрупким женщинам угрожают не только разозленные мафиози, но и коррумпированные коллеги Роуз.

  • Мировая премьера: 7 мая 2015
  • Российская премьера: 11 июня 2015


Качество видео: HDRip

Продолжительность: 01:27:31
Формат: AVI
Видео: XviD, 720x304 (2.35:1), 23.976 fps, 1842 kbps
Аудио: русский, дублированный (iTunes), AC3 5.1, 48 kHz, 384 kbps

Код:

Format : AVI
Format/Info : Audio Video Interleave
File size : 1.37 GiB
Duration : 1h 27mn
Overall bit rate : 2 236 Kbps
Writing application : VirtualDubMod 1.5.10.2 (build 2540/release)
Writing library : VirtualDubMod build 2540/release

Video
ID : 0
Format : MPEG-4 Visual
Format profile : Advanced Simple@L5
Format settings, BVOP : Yes
Format settings, QPel : No
Format settings, GMC : No warppoints
Format settings, Matrix : Default (MPEG)
Codec ID : XVID
Codec ID/Hint : XviD
Duration : 1h 27mn
Bit rate : 1 843 Kbps
Width : 720 pixels
Height : 304 pixels
Display aspect ratio : 2.35:1
Frame rate : 23.976 fps
Resolution : 8 bits
Colorimetry : 4:2:0
Scan type : Progressive
Bits/(Pixel*Frame) : 0.351
Stream size : 1.13 GiB (82%)
Writing library : XviD 1.2.1 (UTC 2008-12-04)

Audio
ID : 1
Format : AC-3
Format/Info : Audio Coding 3
Codec ID : 2000
Duration : 1h 27mn
Bit rate mode : Constant
Bit rate : 384 Kbps
Channel(s) : 6 channels
Channel positions : Front: L C R, Surround: L R, LFE
Sampling rate : 48.0 KHz
Stream size : 240 MiB (17%)
Alignment : Split accross interleaves
Interleave, duration : 42 ms (1.00 video frame)
Interleave, preload duration : 500 ms
picpicpicpicpic
Для увеличения картинки щелкните мышкой по превью

Этот торрент недоступен для скачивания без регистрации, однако доступен по публичной magnet-ссылке (источники с публичных трекеров). Перед использованием ссылки прочтите, пожалуйста Пользовательское соглашение, а также как можно дольше оставайтесь на раздаче! Для того, чтобы скачать сам торрент-файл (который видит больше источников), а также для того, чтобы поблагодарить релизера, вам необходимо зарегистрироваться. Если регистрироваться лень - вы можете также попробовать скачать релиз по нашим партнерским ссылкам ниже.

[underverse.su].t57468.torrent
Трекер: Зарегистрирован   [ 25.08.2015 22:32 ]  

Статус: T временная (by makkol at 26.08.2015 15:04)
Поблагодарили: 3 человека
Тип торрента: публичный - доступные источники с открытых трекеров: 
Размер: 1,37 GB (занимает 0,31 DVDR, для записи нужно 1 болванка DVDR/RW)
 
 
Похожие темы
Форум Тема Автор Торрент Отв. Посл. сооб.
T Зарубежное кино [DVDRip, Low-Res HDRip, и т.д.] Красотки в Париже / Sous Les Jupes Des Filles (Одри Дана) [2013 г., Комедия, TS] Dub (RUS) Ведьмочка
5 | 0

0 | 808

32

04.09.2014 17:01

T Зарубежное кино [DVDRip, Low-Res HDRip, и т.д.] Красотки в Париже / Sous Les Jupes Des Filles (Одри Дана) [2013 г., Комедия, WEB-DLRip] MVO (RUS) + Original (FRA) Ведьмочка
12 | 0

0 | 750

36

05.09.2014 13:05

Зарубежное кино [DVDRip, Low-Res HDRip, и т.д.] Красотки в Париже / Sous Les Jupes Des Filles (Одри Дана) [2013 г., Комедия, BDRip] MVO (RUS, Лицензия) Ведьмочка
3 | 0

0 | 442

25

26.09.2014 09:40

Зарубежное кино [DVDRip, Low-Res HDRip, и т.д.] Красотки в Париже / Sous Les Jupes Des Filles (Одри Дана) [2013 г., Комедия, BDRip-AVC] MVO (RUS, Лицензия) + Original (FRA) + Subs (RUS) Ведьмочка
7 | 0

0 | 684

7

11.10.2014 01:57

T Зарубежное кино [DVDRip, Low-Res HDRip, и т.д.] Красотки в бегах / Hot Pursuit (Энн Флетчер) [2015 г., боевик, комедия, HDRip] Dub (звук с CAMRip) + Original makkol
27 | 0

0 | 797

70

28.07.2015 10:05

T Зарубежное кино [DVDRip, Low-Res HDRip, и т.д.] Красотки в бегах / Hot Pursuit (Энн Флетчер) [2015 г., боевик, комедия, HDRip] Dub (Line) + Original makkol
326 | 1

0 | 821

82

01.08.2015 23:33

T Зарубежное кино [HDDVDRip / BDRip / WEB-DL / HDTV 1080/720р] Красотки в Париже / Sous Les Jupes Des Filles (Одри Дана) [2013 г., Комедия, WEB-DL 720p] MVO (RUS) + Original (FRA) Ведьмочка
8 | 0

0 | 727

17

05.09.2014 13:00

Зарубежное кино [HDDVDRip / BDRip / WEB-DL / HDTV 1080/720р] Красотки в Париже / Sous Les Jupes Des Filles (Одри Дана) [2013 г., Комедия, BDRip 720p] MVO (RUS, Лицензия) + Subs (RUS) Ведьмочка
22 | 0

0 | 758

8

11.10.2014 02:01

T Зарубежное кино [HDDVDRip / BDRip / WEB-DL / HDTV 1080/720р] Красотки в бегах / Hot Pursuit (Энн Флетчер) [2015 г., боевик, комедия, BDRip 720p] Dub (звук с CAMRip) + Original makkol
12 | 0

0 | 559

9

28.07.2015 10:15

T Зарубежное кино [HDDVDRip / BDRip / WEB-DL / HDTV 1080/720р] Красотки в бегах / Hot Pursuit (Энн Флетчер) [2015 г., боевик, комедия, BDRip 1080p] Dub (звук с CAMRip) + Original makkol
4 | 0

0 | 828

23

28.07.2015 10:25


Яндекс.Метрика powered by Sphinx


В Н И М А Н И Е
Сайт не распространяет и не хранит электронные версии произведений, а лишь бесплатно и без коммерческой выгоды (не требуя взамен платы,
SMS и т.д.) предоставляет доступ к создаваемому пользователями каталогу ссылок на торрент-файлы, которые содержат только списки хеш-сумм.
Убедительная просьба с жалобами обращаться напрямую к пользователю, разместившему торрент файл.

Вверх