Loading...
Error

Леди-детектив мисс Фрайни Фишер / Miss Fisher's Murder Mysteries / Сезон 3 (1-8 серии из 8) (Тони Тилс, Даина Рейд, Питер Андрикидис) [2015 г., драма, криминал, детектив, WEB-DLRip] MVO

Статистика раздачи
Размер:  4,71 GB   |    Зарегистрирован:  1 год 3 месяца   |    Скачан:  5 раз

Полного источника не было: 7 месяцев

Сидов:  0  |  0 KB/s  ]   Личеров:  0  |  0 KB/s  ]

* - сиды/пиры с внешних источников

   
 
Автор Сообщение

older Пол:Муж

25-Авг-2015 22:03

Леди-детектив мисс Фрайни Фишер / Miss Fisher's Murder Mysteries / Сезон 3 (1-8 серии)


Год выпуска: 2015
Жанр: драма, криминал, детектив
Страна: Австралия
Режиссер: Тони Тилс, Даина Рейд, Питер Андрикидис
В ролях: Эсси Дэвис, Ричард Блиф, Эшли Каммингс, Хьюго Джонстон-Барт, Мириам Марголис, Натан Пейдж, Брендан Кауфман и др.
Сюжет фильма:
Экранизация серии романов австралийской писательницы Керри Гринвуд о первой леди-детективе Мельбурна 20-х годов прошлого века мисс Фрайни Фишер, любительнице приключений и красивых мужчин, которая с легкостью управляет не только автомобилем, но и самолётом, всегда носит при себе пистолет с перламутровой ручкой и острый нож. Ещё она прекрасно танцует танго, наверняка на этом список её талантов не заканчивается, и уж точно, что все эти навыки неизменно помогают ей справиться с самыми запутанными делами.

Качество видео: WEB-DLRip

Продолжительность: ~ 00:53:00
Формат: AVI
Видео: XviD, 720х400, 1384 kbps
Аудио: русский, многоголосый закадровый [профессиональный], MP3 2.0, 192 kbps - ViruseProject

Код:

Общее
Полное имя                               : \Miss.Fisher's.Murder.Mysteries.S03.ViruseProject\Miss.Fisher's.Murder.Mysteries.S03E01.ViruseProject.avi
Формат                                   : AVI
Формат/Информация                        : Audio Video Interleave
Размер файла                             : 603 Мбайт
Продолжительность                        : 53 м.
Общий поток                              : 1586 Кбит/сек
Программа кодирования                    : VirtualDubMod 1.5.10.2 (build 2540/release)
Библиотека кодирования                   : VirtualDubMod build 2540/release

Видео
Идентификатор                            : 0
Формат                                   : MPEG-4 Visual
Профиль формата                          : Advanced Simple@L5
Параметр BVOP формата                    : 1
Параметр QPel формата                    : Нет
Параметр GMC формата                     : Без точки перехода
Параметр матрицы формата                 : Default (MPEG)
Идентификатор кодека                     : XVID
Идентификатор кодека/Подсказка           : XviD
Продолжительность                        : 53 м.
Битрейт                                  : 1384 Кбит/сек
Ширина                                   : 720 пикселей
Высота                                   : 400 пикселей
Соотношение сторон                       : 16:9
Частота кадров                           : 25,000 кадров/сек
Цветовое пространство                    : YUV
Субдискретизация насыщенности            : 4:2:0
Битовая глубина                          : 8 бит
Тип развёртки                            : Прогрессивная
Метод сжатия                             : С потерями
Бит/(Пиксели*Кадры)                      : 0.192
Размер потока                            : 526 Мбайт (87%)
Библиотека кодирования                   : XviD 1.2.1 (UTC 2008-12-04)

Аудио
Идентификатор                            : 1
Формат                                   : MPEG Audio
Версия формата                           : Version 1
Профиль формата                          : Layer 3
Режим                                    : Joint stereo
Расширение режима                        : MS Stereo
Идентификатор кодека                     : 55
Идентификатор кодека/Подсказка           : MP3
Продолжительность                        : 53 м.
Вид битрейта                             : Постоянный
Битрейт                                  : 192 Кбит/сек
Каналы                                   : 2 канала
Частота                                  : 48,0 КГц
Метод сжатия                             : С потерями
Размер потока                            : 73,0 Мбайт (12%)
Выравнивание                             : Разделение по промежуткам
Продолжительность промежутка             : 40  мс. (1,00 видеокадр)
Время предзагрузки промежутка            : 500  мс.

Релиз группы:

picpicpicpicpic
Для увеличения картинки щелкните мышкой по превью

Этот торрент недоступен для скачивания без регистрации, однако доступен по публичной magnet-ссылке (источники с публичных трекеров). Перед использованием ссылки прочтите, пожалуйста Пользовательское соглашение, а также как можно дольше оставайтесь на раздаче! Для того, чтобы скачать сам торрент-файл (который видит больше источников), а также для того, чтобы поблагодарить релизера, вам необходимо зарегистрироваться. Если регистрироваться лень - вы можете также попробовать скачать релиз по нашим партнерским ссылкам ниже.

[underverse.su].t57465.torrent
Трекер: Зарегистрирован   [ 25.08.2015 22:03 ]  

Статус: проверено (by makkol at 25.08.2015 22:57)
Поблагодарили: пока никто не поблагодарил...
Тип торрента: публичный - доступные источники с открытых трекеров: 
Размер: 4,71 GB (занимает 1,08 DVDR, для записи нужно 2 болванки DVDR/RW)
 
 
Похожие темы
Форум Тема Автор Торрент Отв. Посл. сооб.
Зарубежные сериалы Леди-детектив мисс Фрайни Фишер / Miss Fisher's Murder Mysteries / Сезон 1-2 (1-26 серии из 26) (Тони Тилс, Даина Рейд, Питер Андрикидис) [2012-2013 г., драма, криминал, детектив, DVDRip, HDRip] MVO... older
1 | 0

0 | 441

5

25.08.2015 21:39


Яндекс.Метрика powered by Sphinx


В Н И М А Н И Е
Сайт не распространяет и не хранит электронные версии произведений, а лишь бесплатно и без коммерческой выгоды (не требуя взамен платы,
SMS и т.д.) предоставляет доступ к создаваемому пользователями каталогу ссылок на торрент-файлы, которые содержат только списки хеш-сумм.
Убедительная просьба с жалобами обращаться напрямую к пользователю, разместившему торрент файл.

Вверх