Loading...
Error

Ночная бригада / The Night Crew (Кристиан Сесма) [2015 г., боевик, триллер, HDRip] MVO

Статистика раздачи
Размер:  1,37 GB   |    Зарегистрирован:  1 год 3 месяца   |    Скачан:  30 раз

Полного источника не было: 8 часов

Сидов:  0  |  0 KB/s  ]   Личеров:  0  |  0 KB/s  ]

* - сиды/пиры с внешних источников

   
 
Автор Сообщение

makkol Пол:Муж

25-Авг-2015 21:54

Ночная бригада / The Night Crew


Год выпуска: 2015
Жанр: боевик, триллер
Производство: США [Premiere Entertainment Group]
Режиссер: Кристиан Сесма
В ролях: Дэнни Трехо, Джейсон Мьюз, Чести Бальестерос, Люк Госс, Букем Вудбайн, Кристин Нгуйен, Жаклин Лорд, Бруна Рубио, Роберто «Санс» Санчес, Лусиана Фолхебер
Сюжет фильма:
Команда безбашенных искателей приключений пытается выжить ночью в мотеле посреди пустыни, обороняясь от орды жестоких убийц.

  • Мировая премьера: 17 марта 2015


Качество видео: HDRip

Продолжительность: 01:28:38
Формат: AVI
Видео: XviD, 720x400 (16:9), 25.000 fps, 1814 kbps
Аудио: русский, профессиональный многоголосый закадровый (iTunes), AC3 5.1, 48 kHz, 384 kbps

Код:

Format : AVI
Format/Info : Audio Video Interleave
File size : 1.37 GiB
Duration : 1h 28mn
Overall bit rate : 2 207 Kbps
Writing application : VirtualDubMod 1.5.10.2 (build 2540/release)
Writing library : VirtualDubMod build 2540/release

Video
ID : 0
Format : MPEG-4 Visual
Format profile : Advanced Simple@L5
Format settings, BVOP : Yes
Format settings, QPel : No
Format settings, GMC : No warppoints
Format settings, Matrix : Default (MPEG)
Codec ID : XVID
Codec ID/Hint : XviD
Duration : 1h 28mn
Bit rate : 1 814 Kbps
Width : 720 pixels
Height : 400 pixels
Display aspect ratio : 16:9
Frame rate : 25.000 fps
Resolution : 8 bits
Colorimetry : 4:2:0
Scan type : Progressive
Bits/(Pixel*Frame) : 0.252
Stream size : 1.12 GiB (82%)
Writing library : XviD 1.2.1 (UTC 2008-12-04)

Audio
ID : 1
Format : AC-3
Format/Info : Audio Coding 3
Codec ID : 2000
Duration : 1h 28mn
Bit rate mode : Constant
Bit rate : 384 Kbps
Channel(s) : 6 channels
Channel positions : Front: L C R, Surround: L R, LFE
Sampling rate : 48.0 KHz
Stream size : 243 MiB (17%)
Alignment : Split accross interleaves
Interleave, duration : 40 ms (1.00 video frame)
Interleave, preload duration : 500 ms
picpicpicpicpic
Для увеличения картинки щелкните мышкой по превью

Этот торрент недоступен для скачивания без регистрации, однако доступен по публичной magnet-ссылке (источники с публичных трекеров). Перед использованием ссылки прочтите, пожалуйста Пользовательское соглашение, а также как можно дольше оставайтесь на раздаче! Для того, чтобы скачать сам торрент-файл (который видит больше источников), а также для того, чтобы поблагодарить релизера, вам необходимо зарегистрироваться. Если регистрироваться лень - вы можете также попробовать скачать релиз по нашим партнерским ссылкам ниже.

[underverse.su].t57464.torrent
Трекер: Зарегистрирован   [ 25.08.2015 21:54 ]  

Статус: T временная (by makkol at 26.08.2015 14:57)
Поблагодарили: пока никто не поблагодарил...
Тип торрента: публичный - доступные источники с открытых трекеров: 
Размер: 1,37 GB (занимает 0,31 DVDR, для записи нужно 1 болванка DVDR/RW)
 
 
Похожие темы
Форум Тема Автор Торрент Отв. Посл. сооб.
T Зарубежное кино [HDDVDRip / BDRip / WEB-DL / HDTV 1080/720р] Ночная бригада / The Night Crew (Кристиан Сесма) [2015 г., боевик, триллер, BDRip 720p] MVO (Rus) + Fren makkol
21 | 1

0 | 355

6

25.08.2015 22:08

T Зарубежное кино [HDDVDRip / BDRip / WEB-DL / HDTV 1080/720р] Ночная бригада / The Night Crew (Кристиан Сесма) [2015 г., боевик, триллер, BDRip 1080p] MVO (Rus) + Fren makkol
2 | 0

0 | 348

9

25.08.2015 22:18


Яндекс.Метрика powered by Sphinx


В Н И М А Н И Е
Сайт не распространяет и не хранит электронные версии произведений, а лишь бесплатно и без коммерческой выгоды (не требуя взамен платы,
SMS и т.д.) предоставляет доступ к создаваемому пользователями каталогу ссылок на торрент-файлы, которые содержат только списки хеш-сумм.
Убедительная просьба с жалобами обращаться напрямую к пользователю, разместившему торрент файл.

Вверх