Loading...
Error

Леди-детектив мисс Фрайни Фишер / Miss Fisher's Murder Mysteries / Сезон 1-2 (1-26 серии из 26) (Тони Тилс, Даина Рейд, Питер Андрикидис) [2012-2013 г., драма, криминал, детектив, DVDRip, HDRip] MVO + Original

Статистика раздачи
Размер:  15,92 GB   |    Зарегистрирован:  1 год 3 месяца   |    Скачан:  5 раз

Полного источника не было: 8 месяцев

Сидов:  0  |  0 KB/s  ]   Личеров:  0  |  0 KB/s  ]

* - сиды/пиры с внешних источников

   
 
Автор Сообщение

older Пол:Муж

25-Авг-2015 21:39

Леди-детектив мисс Фрайни Фишер / Miss Fisher's Murder Mysteries / Сезон 1-2 (1-26 серии из 26)


Год выпуска: 2012-2013
Жанр: драма, криминал, детектив
Страна: Австралия
Режиссер: Тони Тилс, Даина Рейд, Питер Андрикидис
В ролях: Эсси Дэвис (Матрица: Перезагрузка, Матрица: Революция, Девушка с жемчужной сережкой, Австралия), Натан Пейдж, Хьюго Джонстон-Барт, Эшли Каммингс, Трэвис МакМахон, Энтони Шарп, Ричард Блиф, Мириам Марголис, Ruby Rees Wemyss, Люсия Эммерихс и др.
Сюжет фильма:
Экранизация серии романов австралийской писательницы Керри Гринвуд о первой леди-детективе Мельбурна 20-х годов прошлого века мисс Фрайни Фишер, любительнице приключений и красивых мужчин, которая с легкостью управляет не только автомобилем, но и самолётом, всегда носит при себе пистолет с перламутровой ручкой и острый нож. Ещё она прекрасно танцует танго, наверняка на этом список её талантов не заканчивается, и уж точно, что все эти навыки неизменно помогают ей справиться с самыми запутанными делами…

Сезон: 1
Качество видео: DVDRip

Продолжительность: ~ 00:56:00
Формат: AVI
Видео: XviD, 624x352, 1113 kbps
Аудио #1: русский, многоголосый закадровый [профессиональный], AC3 2.0, 192 kbps - студия "Лексикон", по заказу канала ТВЦ
Аудио #2: английский, оригинал, AC3 2.0, 192 kbps
Сезон: 2
Качество видео: HDRip

Продолжительность: ~ 00:54:00
Формат: AVI
Видео: XviD, 720x400, 1246 kbps
Аудио #1: русский, многоголосый закадровый [профессиональный], AC3 2.0, 192 kbps - студия "Лексикон", по заказу канала ТВЦ
Аудио #2: английский, оригинал, AC3 2.0, 192 kbps

Код:

Общее
Полное имя                               : \Мисс Фишер. Сезонs 1-2\S1\1x01 - Cocaine Blues (Кокаиновый блюз).avi
Формат                                   : AVI
Формат/Информация                        : Audio Video Interleave
Размер файла                             : 613 Мбайт
Продолжительность                        : 56 м.
Общий поток                              : 1505 Кбит/сек
Название фильма                          : Леди-детектив мисс Фрайни Фишер. Сезон 1 / Miss Fisher's Murder Mysteries. Season 1 (2012)
Программа кодирования                    : VirtualDubMod 1.5.10.2 (build 2540/release)
Библиотека кодирования                   : VirtualDubMod build 2540/release

Видео
Идентификатор                            : 0
Формат                                   : MPEG-4 Visual
Профиль формата                          : Advanced Simple@L5
Параметр BVOP формата                    : 2
Параметр QPel формата                    : Нет
Параметр GMC формата                     : Без точки перехода
Параметр матрицы формата                 : Default (H.263)
Идентификатор кодека                     : XVID
Идентификатор кодека/Подсказка           : XviD
Продолжительность                        : 56 м.
Битрейт                                  : 1113 Кбит/сек
Ширина                                   : 624 пикселя
Высота                                   : 352 пикселя
Соотношение сторон                       : 16:9
Частота кадров                           : 25,000 кадров/сек
Цветовое пространство                    : YUV
Субдискретизация насыщенности            : 4:2:0
Битовая глубина                          : 8 бит
Тип развёртки                            : Прогрессивная
Метод сжатия                             : С потерями
Бит/(Пиксели*Кадры)                      : 0.203
Размер потока                            : 453 Мбайт (74%)
Библиотека кодирования                   : XviD 64

Аудио #1
Идентификатор                            : 1
Формат                                   : AC-3
Формат/Информация                        : Audio Coding 3
Расширение режима                        : CM (complete main)
Параметр Endianness формата              : Big
Идентификатор кодека                     : 2000
Продолжительность                        : 56 м.
Вид битрейта                             : Постоянный
Битрейт                                  : 192 Кбит/сек
Каналы                                   : 2 канала
Расположение каналов                     : Front: L R
Частота                                  : 48,0 КГц
Битовая глубина                          : 16 бит
Метод сжатия                             : С потерями
Размер потока                            : 78,2 Мбайт (13%)
Выравнивание                             : Соединение по промежуткам
Продолжительность промежутка             : 160  мс. (4,00 видеокадра)
Время предзагрузки промежутка            : 640  мс.
Заголовок                                : Профессиональный (многоголосый, закадровый) ТВЦ

Аудио #2
Идентификатор                            : 2
Формат                                   : AC-3
Формат/Информация                        : Audio Coding 3
Расширение режима                        : CM (complete main)
Параметр Endianness формата              : Big
Идентификатор кодека                     : 2000
Продолжительность                        : 56 м.
Вид битрейта                             : Постоянный
Битрейт                                  : 192 Кбит/сек
Каналы                                   : 2 канала
Расположение каналов                     : Front: L R
Частота                                  : 48,0 КГц
Битовая глубина                          : 16 бит
Метод сжатия                             : С потерями
Размер потока                            : 78,2 Мбайт (13%)
Выравнивание                             : Соединение по промежуткам
Продолжительность промежутка             : 160  мс. (4,00 видеокадра)
Время предзагрузки промежутка            : 640  мс.
Заголовок                                : Английский

Код:

Общее
Полное имя                               : \Мисс Фишер. Сезонs 1-2\S2\2x01 - Murder Most Scandalous (Самое скандальное убийство).avi
Формат                                   : AVI
Формат/Информация                        : Audio Video Interleave
Размер файла                             : 641 Мбайт
Продолжительность                        : 54 м.
Общий поток                              : 1645 Кбит/сек
Название фильма                          : Леди-детектив мисс Фрайни Фишер (Мисс Фишер). Сезон 2 / Miss Fisher's Murder Mysteries. Season 2 (2013)
Программа кодирования                    : VirtualDubMod 1.5.10.2 (build 2540/release)
Правообладатель                          : miha2154

Видео
Идентификатор                            : 0
Формат                                   : MPEG-4 Visual
Профиль формата                          : Advanced Simple@L5
Параметр BVOP формата                    : 2
Параметр QPel формата                    : Нет
Параметр GMC формата                     : Без точки перехода
Параметр матрицы формата                 : Default (MPEG)
Идентификатор кодека                     : XVID
Идентификатор кодека/Подсказка           : XviD
Продолжительность                        : 54 м.
Битрейт                                  : 1246 Кбит/сек
Ширина                                   : 720 пикселей
Высота                                   : 400 пикселей
Соотношение сторон                       : 16:9
Частота кадров                           : 25,000 кадров/сек
Цветовое пространство                    : YUV
Субдискретизация насыщенности            : 4:2:0
Битовая глубина                          : 8 бит
Тип развёртки                            : Прогрессивная
Метод сжатия                             : С потерями
Бит/(Пиксели*Кадры)                      : 0.173
Размер потока                            : 486 Мбайт (76%)
Библиотека кодирования                   : XviD 1.1.0 (UTC 2005-11-22)

Аудио #1
Идентификатор                            : 1
Формат                                   : AC-3
Формат/Информация                        : Audio Coding 3
Расширение режима                        : CM (complete main)
Параметр Endianness формата              : Big
Идентификатор кодека                     : 2000
Продолжительность                        : 54 м.
Вид битрейта                             : Постоянный
Битрейт                                  : 192 Кбит/сек
Каналы                                   : 2 канала
Расположение каналов                     : Front: L R
Частота                                  : 48,0 КГц
Битовая глубина                          : 16 бит
Метод сжатия                             : С потерями
Размер потока                            : 74,8 Мбайт (12%)
Выравнивание                             : Разделение по промежуткам
Продолжительность промежутка             : 40  мс. (1,00 видеокадр)
Время предзагрузки промежутка            : 500  мс.
Заголовок                                : Профессиональный (многоголосый закадровый) ТВЦ

Аудио #2
Идентификатор                            : 2
Формат                                   : AC-3
Формат/Информация                        : Audio Coding 3
Расширение режима                        : CM (complete main)
Параметр Endianness формата              : Big
Идентификатор кодека                     : 2000
Продолжительность                        : 54 м.
Вид битрейта                             : Постоянный
Битрейт                                  : 192 Кбит/сек
Каналы                                   : 2 канала
Расположение каналов                     : Front: L R
Частота                                  : 48,0 КГц
Битовая глубина                          : 16 бит
Метод сжатия                             : С потерями
Размер потока                            : 74,8 Мбайт (12%)
Выравнивание                             : Разделение по промежуткам
Продолжительность промежутка             : 40  мс. (1,00 видеокадр)
Время предзагрузки промежутка            : 500  мс.
Заголовок                                : Английский

 
picpicpicpicpicpicpicpicpicpic
Для увеличения картинки щелкните мышкой по превью

Релиз группы: - студия Лексикон

Этот торрент недоступен для скачивания без регистрации, однако доступен по публичной magnet-ссылке (источники с публичных трекеров). Перед использованием ссылки прочтите, пожалуйста Пользовательское соглашение, а также как можно дольше оставайтесь на раздаче! Для того, чтобы скачать сам торрент-файл (который видит больше источников), а также для того, чтобы поблагодарить релизера, вам необходимо зарегистрироваться. Если регистрироваться лень - вы можете также попробовать скачать релиз по нашим партнерским ссылкам ниже.

[underverse.su].t57463.torrent
Трекер: Зарегистрирован   [ 25.08.2015 21:39 ]  

Статус: проверено (by makkol at 25.08.2015 22:56)
Поблагодарили: 1 человек
Тип торрента: публичный - доступные источники с открытых трекеров: 
Размер: 15,92 GB (занимает 3,64 DVDR, для записи нужно 4 болванки DVDR/RW)
 
 
Похожие темы
Форум Тема Автор Торрент Отв. Посл. сооб.
Зарубежные сериалы Леди-детектив мисс Фрайни Фишер / Miss Fisher's Murder Mysteries / Сезон 3 (1-8 серии из 8) (Тони Тилс, Даина Рейд, Питер Андрикидис) [2015 г., драма, криминал, детектив, WEB-DLRip] MVO older
14 | 1

0 | 331

5

25.08.2015 22:03


Яндекс.Метрика powered by Sphinx


В Н И М А Н И Е
Сайт не распространяет и не хранит электронные версии произведений, а лишь бесплатно и без коммерческой выгоды (не требуя взамен платы,
SMS и т.д.) предоставляет доступ к создаваемому пользователями каталогу ссылок на торрент-файлы, которые содержат только списки хеш-сумм.
Убедительная просьба с жалобами обращаться напрямую к пользователю, разместившему торрент файл.

Вверх