Loading...
Error

Смерть свадебного свидетеля / Best Man Down (Тед Коланд) [2013 г., драма, комедия, HDRip] MVO

Статистика раздачи
Размер:  1,36 GB   |    Зарегистрирован:  1 год 3 месяца   |    Скачан:  14 раз

Полного источника не было: 4 дня

Сидов:  0  |  0 KB/s  ]   Личеров:  0  |  0 KB/s  ]

* - сиды/пиры с внешних источников

   
 
Автор Сообщение

makkol Пол:Муж

24-Авг-2015 23:27

Смерть свадебного свидетеля / Best Man Down


Год выпуска: 2013
Жанр: драма, комедия
Производство: США [KODA Entertainment]
Режиссер: Тед Коланд
В ролях: Джастин Лонг, Джесс Вейкслер, Тайлер Лэбин, Эддисон Тимлин, Шелли Лонг, Фрэнсис О’Коннор, Ивэн Джонс, Майкл Лэндис, Питер Сивертсен, Джеймс Детмар
Сюжет фильма:
Кристин и Скотт уверены, что этот день станет самым счастливым в их судьбе, ведь сегодня они сочетаются браком. Свидетелем на свадьбе становится Лампи, лучший друг Скотта. После окончания торжественного мероприятия молодожены собираются отправиться романтическое путешествие, однако их планы оказываются нарушены трагическим происшествием: Лампи обнаруживают мёртвым. И вскоре становится ясно, что эта смерть была неслучайной...

  • Мировая премьера: 20 октября 2012


Качество видео: HDRip

Продолжительность: 01:29:50
Формат: AVI
Видео: XviD, 720x304 (2.35:1), 23.976 fps, 1965 kbps
Аудио: русский, многоголосый закадровый (официальный звук), AC3 2.0, 48 kHz, 192 kbps

Код:

Общее
Полное имя                               : Smertj.svadenogo.svidetelya.2013.P.HDRip.avi
Формат                                   : AVI
Формат/Информация                        : Audio Video Interleave
Размер файла                             : 1,36 Гбайт
Продолжительность                        : 1 ч. 29 м.
Общий поток                              : 2167 Кбит/сек
Программа кодирования                    : VirtualDubMod 1.5.10.2 (build 2540/release)
Библиотека кодирования                   : VirtualDubMod build 2540/release

Видео
Идентификатор                            : 0
Формат                                   : MPEG-4 Visual
Профиль формата                          : Advanced Simple@L5
Параметр BVOP формата                    : 2
Параметр QPel формата                    : Нет
Параметр GMC формата                     : Без точки перехода
Параметр матрицы формата                 : Default (MPEG)
Идентификатор кодека                     : XVID
Идентификатор кодека/Подсказка           : XviD
Продолжительность                        : 1 ч. 29 м.
Битрейт                                  : 1965 Кбит/сек
Ширина                                   : 720 пикселей
Высота                                   : 304 пикселя
Соотношение сторон                       : 2,35:1
Частота кадров                           : 23,976 кадра/сек
Цветовое пространство                    : YUV
Субдискретизация насыщенности            : 4:2:0
Битовая глубина                          : 8 бит
Тип развёртки                            : Прогрессивная
Метод сжатия                             : С потерями
Бит/(Пиксели*Кадры)                      : 0.358
Размер потока                            : 1,23 Гбайт (91%)
Библиотека кодирования                   : XviD 1.2.1 (UTC 2008-12-04)

Аудио
Идентификатор                            : 1
Формат                                   : AC-3
Формат/Информация                        : Audio Coding 3
Расширение режима                        : CM (complete main)
Параметр Endianness формата              : Big
Идентификатор кодека                     : 2000
Продолжительность                        : 1 ч. 29 м.
Вид битрейта                             : Постоянный
Битрейт                                  : 192 Кбит/сек
Каналы                                   : 2 канала
Расположение каналов                     : Front: L R
Частота                                  : 48,0 КГц
Метод сжатия                             : С потерями
Размер потока                            : 123 Мбайт (9%)
Выравнивание                             : Разделение по промежуткам
picpicpicpicpic
Для увеличения картинки щелкните мышкой по превью

Этот торрент недоступен для скачивания без регистрации, однако доступен по публичной magnet-ссылке (источники с публичных трекеров). Перед использованием ссылки прочтите, пожалуйста Пользовательское соглашение, а также как можно дольше оставайтесь на раздаче! Для того, чтобы скачать сам торрент-файл (который видит больше источников), а также для того, чтобы поблагодарить релизера, вам необходимо зарегистрироваться. Если регистрироваться лень - вы можете также попробовать скачать релиз по нашим партнерским ссылкам ниже.

[underverse.su].t57442.torrent
Трекер: Зарегистрирован   [ 24.08.2015 23:27 ]  

Статус: проверено (by makkol at 25.08.2015 11:28)
Поблагодарили: пока никто не поблагодарил...
Тип торрента: публичный - доступные источники с открытых трекеров: 
Размер: 1,36 GB (занимает 0,31 DVDR, для записи нужно 1 болванка DVDR/RW)
 
 
Похожие темы
Форум Тема Автор Торрент Отв. Посл. сооб.
Зарубежное кино [DVDRip, Low-Res HDRip, и т.д.] Смерть свадебного свидетеля / Best Man Down (Тед Коланд / Тед Коланд / Ted Koland) [2012 г., комедия, драма, HDRip] VO (PashaUp) 90ytr90
9 | 0

0 | 217

3

11.02.2015 19:47

Зарубежное кино [HDDVDRip / BDRip / WEB-DL / HDTV 1080/720р] Смерть свадебного свидетеля / Best Man Down (Тед Коланд) [2013 г., драма, комедия, BDRip 720p] MVO + Original + Subs makkol
14 | 0

0 | 424

7

24.08.2015 23:38


Яндекс.Метрика powered by Sphinx


В Н И М А Н И Е
Сайт не распространяет и не хранит электронные версии произведений, а лишь бесплатно и без коммерческой выгоды (не требуя взамен платы,
SMS и т.д.) предоставляет доступ к создаваемому пользователями каталогу ссылок на торрент-файлы, которые содержат только списки хеш-сумм.
Убедительная просьба с жалобами обращаться напрямую к пользователю, разместившему торрент файл.

Вверх