Loading...
Error

Озеро страха: Анаконда / Lake Placid vs. Anaconda (А.Б. Стоун) [2015 г., ужасы, фантастика, боевик, WEB-DLRip] MVO

Статистика раздачи
Размер:  1,37 GB   |    Зарегистрирован:  1 год 3 месяца   |    Скачан:  19 раз

Полного источника не было: 2 месяца 5 дней

Сидов:  0  |  0 KB/s  ]   Личеров:  0  |  0 KB/s  ]

* - сиды/пиры с внешних источников

   
 
Автор Сообщение

makkol Пол:Муж

24-Авг-2015 22:17

Озеро страха: Анаконда / Lake Placid vs. Anaconda


Год выпуска: 2015
Жанр: ужасы, фантастика, боевик
Производство: США [Curmudgeon Films, UFO Films]
Режиссер: А.Б. Стоун
В ролях: Корин Немек, Янси Батлер, Стивен Биллингтон, Скай Лоури,Оливер Уолкер, Али Эгил, Анабель Райт, Лаура Дэйл, Джорджина Филиппс, Найджел Барбер
Сюжет фильма:
Гигантский аллигатор хочет сразиться с не менее гигантской Анакондой. Городской шериф должен найти способ уничтожить двух монстров, прежде чем они уничтожат весь город.

  • Мировая премьера: 25 апреля 2015


Качество видео: WEB-DLRip

Продолжительность: 01:31:35
Формат: AVI
Видео: XviD, 720x400 (16:9), 23.976 fps, 1745 kbps
Аудио: русский, профессиональный многоголосый закадровый (iTunes), AC3 5.1, 48 kHz, 384 kbps

Код:

Format : AVI
Format/Info : Audio Video Interleave
File size : 1.37 GiB
Duration : 1h 31mn
Overall bit rate : 2 138 Kbps
Writing application : VirtualDubMod 1.5.10.3 | www.virtualdub-fr.org || (build 2550/release)
Writing library : VirtualDubMod build 2550/release

Video
ID : 0
Format : MPEG-4 Visual
Format profile : Advanced Simple@L5
Format settings, BVOP : Yes
Format settings, QPel : No
Format settings, GMC : No warppoints
Format settings, Matrix : Default (MPEG)
Codec ID : XVID
Codec ID/Hint : XviD
Duration : 1h 31mn
Bit rate : 1 745 Kbps
Width : 720 pixels
Height : 400 pixels
Display aspect ratio : 16:9
Frame rate : 23.976 fps
Resolution : 8 bits
Colorimetry : 4:2:0
Scan type : Progressive
Bits/(Pixel*Frame) : 0.253
Stream size : 1.12 GiB (82%)
Writing library : XviD 1.2.1 (UTC 2008-12-04)

Audio
ID : 1
Format : AC-3
Format/Info : Audio Coding 3
Codec ID : 2000
Duration : 1h 31mn
Bit rate mode : Constant
Bit rate : 384 Kbps
Channel(s) : 6 channels
Channel positions : Front: L C R, Surround: L R, LFE
Sampling rate : 48.0 KHz
Stream size : 252 MiB (18%)
Alignment : Split accross interleaves
Interleave, duration : 42 ms (1.00 video frame)
Interleave, preload duration : 500 ms
picpicpicpicpic
Для увеличения картинки щелкните мышкой по превью

Этот торрент недоступен для скачивания без регистрации, однако доступен по публичной magnet-ссылке (источники с публичных трекеров). Перед использованием ссылки прочтите, пожалуйста Пользовательское соглашение, а также как можно дольше оставайтесь на раздаче! Для того, чтобы скачать сам торрент-файл (который видит больше источников), а также для того, чтобы поблагодарить релизера, вам необходимо зарегистрироваться. Если регистрироваться лень - вы можете также попробовать скачать релиз по нашим партнерским ссылкам ниже.

[underverse.su].t57437.torrent
Трекер: Зарегистрирован   [ 24.08.2015 22:17 ]  

Статус: T временная (by makkol at 25.08.2015 11:24)
Поблагодарили: пока никто не поблагодарил...
Тип торрента: публичный - доступные источники с открытых трекеров: 
Размер: 1,37 GB (занимает 0,31 DVDR, для записи нужно 1 болванка DVDR/RW)
 
 
Похожие темы
Форум Тема Автор Торрент Отв. Посл. сооб.
Зарубежное кино [DVDRip, Low-Res HDRip, и т.д.] Озеро страха 4 / Lake Placid: The Final Chapter (Дон Майкл Пол) [2012 г., ужасы, WEBDLRip] VO RG NewCinema
4 | 0

0 | 1031

13

28.02.2013 14:11

T Зарубежное кино [HDDVDRip / BDRip / WEB-DL / HDTV 1080/720р] Озеро страха: Анаконда / Lake Placid vs. Anaconda (А.Б. Стоун) [2015 г., ужасы, фантастика, боевик, WEB-DL 720p] MVO (Rus) + MVO (Ukr) + Original makkol
22 | 2

0 | 1272

6

24.08.2015 22:28


Яндекс.Метрика powered by Sphinx


В Н И М А Н И Е
Сайт не распространяет и не хранит электронные версии произведений, а лишь бесплатно и без коммерческой выгоды (не требуя взамен платы,
SMS и т.д.) предоставляет доступ к создаваемому пользователями каталогу ссылок на торрент-файлы, которые содержат только списки хеш-сумм.
Убедительная просьба с жалобами обращаться напрямую к пользователю, разместившему торрент файл.

Вверх