Loading...
Error

Тайная жизнь Eвропейских млекопитающих: История Волка / The Secret Life Of European Mammals: The Wolf's Story [2003 г., документальный, TVRip] VO

Статистика раздачи
Размер:  563 MB   |    Зарегистрирован:  1 год 3 месяца   |    Скачан:  1 раз

Полного источника не было: 11 месяцев

Сидов:  0  |  0 KB/s  ]   Личеров:  0  |  0 KB/s  ]

* - сиды/пиры с внешних источников

   
 
Автор Сообщение

ARI71 Пол:Муж

24-Авг-2015 19:43

Тайная жизнь Eвропейских млекопитающих: История Волка / The Secret Life Of European Mammals: The Wolf's Story


Год выпуска: 2003
Жанр: документальный, фауна
Страна: Франция
Сюжет фильма:
Если бы Волк умел говорить, мы бы услышали длинный и жуткий рассказ.
Давным-давно в Альпах, в самом сердце дремучего леса жил зверь, которого все считали свирепым хищником. Все началось в тот день, когда два молодых волка: самец и самка, еще не взрослые, но, чувствующие влечение друг к другу, покинули семейную группу, как это заведено у волков...
Качество видео: TVRip

Продолжительность: 00:51:25
Формат: AVI
Видео: XviD, 700x428, 1393 kbps
Аудио: русский, одноголосый [профессиональный], MP3 2.0, 128 kbps
Общее
Полное имя : D:\The_Wolf's_Story.avi
Формат : AVI
Формат/Информация : Audio Video Interleave
Размер файла : 563 Мбайт
Продолжительность : 51 м.
Общий поток : 1531 Кбит/сек
Программа кодирования : VirtualDubMod 1.5.10.2 (build 2540/release)
Библиотека кодирования : VirtualDubMod build 2540/release

Видео
Идентификатор : 0
Формат : MPEG-4 Visual
Профиль формата : Advanced Simple@L5
Параметр BVOP формата : 2
Параметр QPel формата : Нет
Параметр GMC формата : Без точки перехода
Параметр матрицы формата : Default (MPEG)
Идентификатор кодека : XVID
Идентификатор кодека/Подсказка : XviD
Продолжительность : 51 м.
Битрейт : 1393 Кбит/сек
Ширина : 700 пикселей
Высота : 428 пикселей
Соотношение сторон : 5:4
Соотношение сторон в оригинале : 16:10
Частота кадров : 25,000 кадров/сек
Цветовое пространство : YUV
Субдискретизация насыщенности : 4:2:0
Битовая глубина : 8 бит
Тип развёртки : Прогрессивная
Метод сжатия : С потерями
Бит/(Пиксели*Кадры) : 0.186
Размер потока : 512 Мбайт (91%)
Библиотека кодирования : XviD 1.3.0.dev55

Аудио
Идентификатор : 1
Формат : MPEG Audio
Версия формата : Version 1
Профиль формата : Layer 3
Режим : Joint stereo
Расширение режима : MS Stereo
Идентификатор кодека : 55
Идентификатор кодека/Подсказка : MP3
Продолжительность : 51 м.
Вид битрейта : Постоянный
Битрейт : 128 Кбит/сек
Каналы : 2 канала
Частота : 48,0 КГц
Метод сжатия : С потерями
Размер потока : 47,1 Мбайт (8%)
Выравнивание : Разделение по промежуткам
Продолжительность промежутка : 40 мс. (1,00 видеокадр)
Время предзагрузки промежутка : 500 мс.














Этот торрент недоступен для скачивания без регистрации, однако доступен по публичной magnet-ссылке (источники с публичных трекеров). Перед использованием ссылки прочтите, пожалуйста Пользовательское соглашение, а также как можно дольше оставайтесь на раздаче! Для того, чтобы скачать сам торрент-файл (который видит больше источников), а также для того, чтобы поблагодарить релизера, вам необходимо зарегистрироваться. Если регистрироваться лень - вы можете также попробовать скачать релиз по нашим партнерским ссылкам ниже.

[underverse.su].t57434.torrent
Трекер: Зарегистрирован   [ 24.08.2015 19:43 ]  

Статус: проверено (by makkol at 24.08.2015 22:03)
Поблагодарили: 1 человек
Тип торрента: публичный - доступные источники с открытых трекеров: 
Размер: 563 MB (занимает 0,13 DVDR, для записи нужно 1 болванка DVDR/RW)
 
 
Похожие темы
Форум Тема Автор Торрент Отв. Посл. сооб.
T Зарубежные мультфильмы Тайная жизнь домашних животных / The Secret Life of Pets (Ярроу Чейни / Yarrow Cheney, Крис Рено / Chris Renaud) [2016 г., мультфильм, комедия, семейный, BDRip-AVC] Dub (iTunes) + Sub (Rus) 90ytr90
84 | 8

0 | 168

7

17.11.2016 08:21

T Зарубежные мультфильмы Тайная жизнь домашних животных / The Secret Life of Pets (Ярроу Чейни / Yarrow Cheney, Крис Рено / Chris Renaud) [2016 г., мультфильм, комедия, семейный, BDRip-AVC] Dub (iTunes) + Original (Eng) +... 90ytr90
377 | 27

0 | 161

4

17.11.2016 08:21

T Зарубежные мультфильмы Тайная жизнь домашних животных / The Secret Life of Pets (Ярроу Чейни / Yarrow Cheney, Крис Рено / Chris Renaud) [2016 г., мультфильм, комедия, семейный, BDRip] Dub (iTunes) + Sub (Rus) 90ytr90
10 | 3

0 | 166

0

16.11.2016 20:57

T Зарубежные мультфильмы Тайная жизнь домашних животных / The Secret Life of Pets (Ярроу Чейни / Yarrow Cheney, Крис Рено / Chris Renaud) [2016 г., мультфильм, комедия, семейный, BDRip] Dub (iTunes) + Sub (Rus) 90ytr90
293 | 24

0 | 184

2

16.11.2016 20:54

T Зарубежные мультфильмы Тайная жизнь домашних животных / The Secret Life of Pets (Ярроу Чейни, Крис Рено) [2016 г., мультфильм, комедия, семейный, HDRip] Dub (Line) makkol
2 | 0

0 | 73

9

05.11.2016 21:23

% Зарубежные мультфильмы Тайная жизнь домашних животных / The Secret Life of Pets (Ярроу Чейни / Yarrow Cheney, Крис Рено / Chris Renaud) [2016 г., мультфильм, комедия, семейный, HDTVRip] Dub (чистый звук) + hardsub (Kor) 90ytr90
7582 | 67

0 | 467

38

05.09.2016 14:18

T Зарубежные мультфильмы Тайная жизнь домашних животных / The Secret Life of Pets (Ярроу Чейни / Yarrow Cheney, Крис Рено / Chris Renaud) [2016 г., мультфильм, комедия, семейный, TS] Dub (чистый звук) 90ytr90
342 | 5

0 | 823

45

22.08.2016 15:39

T Зарубежные мультфильмы Тайная жизнь домашних животных / The Secret Life of Pets (Ярроу Чейни, Крис Рено) [2016 г., мультфильм, комедия, семейный, HDTVRip] Dub (Line) makkol
4 | 0

0 | 569

57

01.09.2016 13:02

BBC Тайная жизнь мошкары / The Secret Life of Midges (Колин Мюррей) [2015 г., документальный, научно-познавательный, HDTVRip 720p] Dub ARI71
2 | 0

0 | 741

5

30.06.2016 09:48

Научно-популярные фильмы Тайная жизнь европейских млекопитающих: Страж сада - ёж / The Secret Life Of European Mammals: The Garden Warrior - The Hedgehog (Николя Груа) [2007 г., документальный, флора, фауна, TVRip] VO ARI71
3 | 1

0 | 474

2

17.08.2016 20:49


Яндекс.Метрика powered by Sphinx


В Н И М А Н И Е
Сайт не распространяет и не хранит электронные версии произведений, а лишь бесплатно и без коммерческой выгоды (не требуя взамен платы,
SMS и т.д.) предоставляет доступ к создаваемому пользователями каталогу ссылок на торрент-файлы, которые содержат только списки хеш-сумм.
Убедительная просьба с жалобами обращаться напрямую к пользователю, разместившему торрент файл.

Вверх