Loading...
Error

Бабочки высокогорья [1986 г., документальный, TVRip]

Статистика раздачи
Размер:  376 MB   |    Зарегистрирован:  1 год 3 месяца   |    Скачан:  2 раза

Полного источника не было: 1 год 3 месяца

Сидов:  0  |  0 KB/s  ]   Личеров:  0  |  0 KB/s  ]

* - сиды/пиры с внешних источников

   
 
Автор Сообщение

ARI71 Пол:Муж

24-Авг-2015 09:58

Бабочки высокогорья


Год выпуска: 1986
Жанр: документальный
Страна: СССР , Казахстан (Казахфильм)
Режиссер: Лариса Мухамедгалиева
Сюжет фильма:
В горах Заилийского Алатау Казахстана среди горных озер и лугов обитают бабочки-аполлоны (род. Parnassius) из семейства парусников. Бабочки этого рода входят в число самых желанных групп насекомых у коллекционеров и доставляют немало трудностей энтомологам.
В фильме красочно показаны различные виды аполлонов, естественная среда их обитания, стадии их биологического развития от яйца до имаго.

В казахском государственном национальном парке - Заилийский Алатау проживает 145 видов различных бабочек, из которых Апполоны составляют пять видов, о которых и пойдет речь в этом фильме
Качество видео: TeleSynch

Продолжительность: 00:19:27
Формат: AVI
Видео: XviD, 720x576, 2496 kbps
Аудио: русский, MP3 2.0, 192 kbps
Фильм оцифрован с киноплёнки. Автор оцифровки неизвестен.

Код:

Общее
Полное имя : D:\Babochki vysokogor'ia.avi
Формат : AVI
Формат/Информация : Audio Video Interleave
Размер файла : 376 Мбайт
Продолжительность : 19 м.
Общий поток : 2702 Кбит/сек
Программа кодирования : Lavf51.12.1

Видео
Идентификатор : 0
Формат : xvid
Идентификатор кодека : xvid
Продолжительность : 19 м.
Битрейт : 2497 Кбит/сек
Ширина : 720 пикселей
Высота : 576 пикселей
Соотношение сторон : 5:4
Частота кадров : 25,000 кадров/сек
Стандарт вещания : PAL
Бит/(Пиксели*Кадры) : 0.241
Размер потока : 348 Мбайт (92%)

Аудио
Идентификатор : 1
Формат : MPEG Audio
Версия формата : Version 1
Профиль формата : Layer 3
Режим : Joint stereo
Расширение режима : MS Stereo
Идентификатор кодека : 55
Идентификатор кодека/Подсказка : MP3
Продолжительность : 19 м.
Вид битрейта : Постоянный
Битрейт : 192 Кбит/сек
Каналы : 2 канала
Частота : 48,0 КГц
Метод сжатия : С потерями
Размер потока : 26,7 Мбайт (7%)
Выравнивание : Соединение по промежуткам
Продолжительность промежутка : 24 мс. (0,60 видеокадр)
Время предзагрузки промежутка : 24 мс.
Библиотека кодирования : LAME3.97
picpicpicpic
Для увеличения картинки щелкните мышкой по превью

Этот торрент недоступен для скачивания без регистрации, однако доступен по публичной magnet-ссылке (источники с публичных трекеров). Перед использованием ссылки прочтите, пожалуйста Пользовательское соглашение, а также как можно дольше оставайтесь на раздаче! Для того, чтобы скачать сам торрент-файл (который видит больше источников), а также для того, чтобы поблагодарить релизера, вам необходимо зарегистрироваться. Если регистрироваться лень - вы можете также попробовать скачать релиз по нашим партнерским ссылкам ниже.

[underverse.su].t57426.torrent
Трекер: Зарегистрирован   [ 24.08.2015 09:58 ]  

Статус: проверено (by makkol at 24.08.2015 10:09)
Поблагодарили: 1 человек
Тип торрента: публичный - доступные источники с открытых трекеров: 
Размер: 376 MB (занимает 0,08 DVDR, для записи нужно 1 болванка DVDR/RW)
 
 

Яндекс.Метрика powered by Sphinx


В Н И М А Н И Е
Сайт не распространяет и не хранит электронные версии произведений, а лишь бесплатно и без коммерческой выгоды (не требуя взамен платы,
SMS и т.д.) предоставляет доступ к создаваемому пользователями каталогу ссылок на торрент-файлы, которые содержат только списки хеш-сумм.
Убедительная просьба с жалобами обращаться напрямую к пользователю, разместившему торрент файл.

Вверх