Loading...
Error

Второй лучший / Second Best (Крис Менгес) [1994 г., драма, DVDRip-AVC] DVO + MVO + Original

Статистика раздачи
Размер:  1,46 GB   |    Зарегистрирован:  6 месяцев   |    Скачан:  2 раза

Полного источника не было: 5 месяцев 28 дней

Сидов:  0  |  0 KB/s  ]   Личеров:  0  |  0 KB/s  ]

* - сиды/пиры с внешних источников

   
 
Автор Сообщение

makkol Пол:Муж

23-Авг-2015 11:56

Второй лучший / Second Best


Год выпуска: 1994
Жанр: драма
Производство: Великобритания , США [Alcor Films, Fron Film Production, Regency Enterprises]
Режиссер: Крис Менгес
В ролях: Уильям Херт, Натан Йапп, Кейт Аллен, Крис Клири Майлс, Дорис Ирвинг, Джеймс Варриор, Джейн Хоррокс, Альфред Линч, Рэчел Фриман, Гус Троакс
Сюжет фильма:
Маленький мальчик Джеймс жил в школе для трудных детей, стремился к саморазрушению и ждал, когда же выйдет из тюрьмы его папа. Одинокий холостяк Грэм Холт жил в глухой английской деревушке, работал одновременно почтальоном и бакалейщиком, отличался мягким, нерешительным характером и мечтал о сыне. Работники социальной службы любили экспериментировать и очень хотели пристроить Джеймса в хорошую семью. Так встретились Джеймс и Грэм. Никогда не имевший детей, Грэм очень скоро приобрел опыт, необходимый для воспитания десятилетних мальчиков. Но его ждет очень сложное испытание - отец Джеймса досрочно освобожден из тюрьмы и жаждет вновь обрести сына.
Замечательная, но тяжелая драма об усыновлении трудного ребенка, сына наркомана, считавшего своего отца солдатом удачи, попавшим в тюрьму. Мальчик просто обожал своего отца, создав из него кумира, и отказывался принять другого человека в качестве замены. Прекрасная игра Херта в роли одинокого мужчины 43 лет, решившегося усыновить мальчика, хотя сам он ни разу не был женат. Воспитывать такого мальчика было очень трудно и остается только поражаться долготерпению Грэма, сумевшего в конце-концов завоевать сердце ребенка...

  • Мировая премьера: 11 сентября 1994


Качество видео: DVDRip-AVC

Продолжительность: 01:45:07
Формат: MKV
Видео: MPEG-4 AVC, 704x464@824x464 (16:9), 23.976 fps, 1472 kbps
Аудио #1: русский, профессиональный двухголосый закадровый (НТВ+), AC3 2.0, 48 kHz, 192 kbps
Аудио #2: русский, профессиональный многоголосый закадровый, AC3 2.0, 48 kHz, 128 kbps
Аудио #3: английский, оригинал, AC3 2.0, 48 kHz, 192 kbps

Код:

Общее
Уникальный идентификатор : 202646247090937602949436853212630728062 (0x98743F5EB77DF80A97F9E10350CBBD7E)
Полное имя : Vtoroy_lutshiy.1994.DVDRip-AVC.mkv
Формат : Matroska
Версия формата : Version 4 / Version 2
Размер файла : 1,46 Гбайт
Продолжительность : 1 ч. 45 м.
Общий поток : 1986 Кбит/сек
Дата кодирования : UTC 2014-12-20 17:56:19
Программа кодирования : mkvmerge v7.4.0 ('Circles') 64bit built on Dec 12 2014 12:19:56
Библиотека кодирования : libebml v1.3.0 + libmatroska v1.4.1
DURATION : 01:45:07.360000000
NUMBER_OF_FRAMES : 197105
NUMBER_OF_BYTES : 151376640
_STATISTICS_WRITING_APP : mkvmerge v7.4.0 ('Circles') 64bit built on Dec 12 2014 12:19:56
_STATISTICS_WRITING_DATE_UTC : 2014-12-20 17:56:19
_STATISTICS_TAGS : BPS DURATION NUMBER_OF_FRAMES NUMBER_OF_BYTES

Видео
Идентификатор : 1
Формат : AVC
Формат/Информация : Advanced Video Codec
Профиль формата : High@L4.1
Параметр CABAC формата : Да
Параметр ReFrames формата : 16 кадров
Идентификатор кодека : V_MPEG4/ISO/AVC
Продолжительность : 1 ч. 45 м.
Битрейт : 1472 Кбит/сек
Ширина : 704 пикселя
Высота : 464 пикселя
Соотношение сторон : 16:9
Соотношение сторон в оригинале : 16:9
Режим частоты кадров : Постоянный
Частота кадров : 23,976 кадра/сек
Цветовое пространство : YUV
Субдискретизация насыщенности : 4:2:0
Битовая глубина : 8 бит
Тип развёртки : Прогрессивная
Бит/(Пиксели*Кадры) : 0.188
Размер потока : 1,05 Гбайт (72%)
Библиотека кодирования : x264 core 142 r2431 ac76440
Настройки программы : cabac=1 / ref=16 / deblock=1:0:0 / analyse=0x3:0x133 / me=umh / subme=10 / psy=1 / psy_rd=1.10:0.10 / mixed_ref=1 / me_range=32 / chroma_me=1 / trellis=2 / 8x8dct=1 / cqm=0 / deadzone=21,11 / fast_pskip=0 / chroma_qp_offset=-6 / threads=8 / lookahead_threads=2 / sliced_threads=0 / nr=0 / decimate=0 / interlaced=0 / bluray_compat=0 / constrained_intra=0 / bframes=10 / b_pyramid=2 / b_adapt=2 / b_bias=0 / direct=3 / weightb=1 / open_gop=0 / weightp=2 / keyint=240 / keyint_min=23 / scenecut=40 / intra_refresh=0 / rc_lookahead=60 / rc=2pass / mbtree=0 / bitrate=1472 / ratetol=1.0 / qcomp=0.60 / qpmin=0 / qpmax=69 / qpstep=4 / cplxblur=20.0 / qblur=0.5 / vbv_maxrate=50000 / vbv_bufsize=62500 / nal_hrd=none / filler=0 / ip_ratio=1.40 / pb_ratio=1.30 / aq=1:1.00
Default : Нет
Forced : Нет
Коэффициенты матрицы : BT.601
colour_range : Limited
DURATION : 01:45:07.343000000
NUMBER_OF_FRAMES : 151225
NUMBER_OF_BYTES : 1160094858
_STATISTICS_WRITING_APP : mkvmerge v7.4.0 ('Circles') 64bit built on Dec 12 2014 12:19:56
_STATISTICS_WRITING_DATE_UTC : 2014-12-20 17:56:19
_STATISTICS_TAGS : BPS DURATION NUMBER_OF_FRAMES NUMBER_OF_BYTES

Аудио #1
Идентификатор : 2
Формат : AC-3
Формат/Информация : Audio Coding 3
Расширение режима : CM (complete main)
Параметр Endianness формата : Big
Идентификатор кодека : A_AC3
Продолжительность : 1 ч. 45 м.
Вид битрейта : Постоянный
Битрейт : 192 Кбит/сек
Каналы : 2 канала
Расположение каналов : Front: L R
Частота : 48,0 КГц
Битовая глубина : 16 бит
Метод сжатия : С потерями
Размер потока : 144 Мбайт (10%)
Заголовок : NTV+
Язык : Russian
Default : Да
Forced : Нет

Аудио #2
Идентификатор : 3
Формат : AC-3
Формат/Информация : Audio Coding 3
Расширение режима : CM (complete main)
Параметр Endianness формата : Big
Идентификатор кодека : A_AC3
Продолжительность : 1 ч. 45 м.
Вид битрейта : Постоянный
Битрейт : 128 Кбит/сек
Каналы : 2 канала
Расположение каналов : Front: L R
Частота : 48,0 КГц
Битовая глубина : 16 бит
Метод сжатия : С потерями
Размер потока : 96,2 Мбайт (6%)
Язык : Russian
Default : Нет
Forced : Нет

Аудио #3
Идентификатор : 4
Формат : AC-3
Формат/Информация : Audio Coding 3
Расширение режима : CM (complete main)
Параметр Endianness формата : Big
Идентификатор кодека : A_AC3
Продолжительность : 1 ч. 45 м.
Вид битрейта : Постоянный
Битрейт : 192 Кбит/сек
Каналы : 2 канала
Расположение каналов : Front: L R
Частота : 48,0 КГц
Битовая глубина : 16 бит
Метод сжатия : С потерями
Размер потока : 144 Мбайт (10%)
Язык : English
Default : Нет
Forced : Нет

Меню
00:00:00.000 : en:Chapter 01
00:09:57.500 : en:Chapter 02
00:20:00.500 : en:Chapter 03
00:29:58.000 : en:Chapter 04
00:40:01.500 : en:Chapter 05
00:50:00.000 : en:Chapter 06
01:00:00.000 : en:Chapter 07
01:10:01.000 : en:Chapter 08
01:20:00.000 : en:Chapter 09
01:30:00.000 : en:Chapter 10
01:40:00.000 : en:Chapter 11
pic pic pic pic pic
Для увеличения картинки щелкните мышкой по превью

Этот торрент недоступен для скачивания без регистрации, однако доступен по публичной magnet-ссылке (источники с публичных трекеров). Перед использованием ссылки прочтите, пожалуйста Пользовательское соглашение, а также как можно дольше оставайтесь на раздаче! Для того, чтобы скачать сам торрент-файл (который видит больше источников), а также для того, чтобы поблагодарить релизера, вам необходимо зарегистрироваться. Если регистрироваться лень - вы можете также попробовать скачать релиз по нашим партнерским ссылкам ниже.

[underverse.su].t57348.torrent
Трекер: Зарегистрирован   [ 09.05.2016 23:40 ]  

Статус: проверено (by makkol at 09.05.2016 23:40)
Поблагодарили: пока никто не поблагодарил...
Тип торрента: публичный - доступные источники с открытых трекеров: 
Размер: 1,46 GB (занимает 1/3 DVDR, для записи нужно 1 болванка DVDR/RW)
 
 

Яндекс.Метрика powered by Sphinx


В Н И М А Н И Е
Сайт не распространяет и не хранит электронные версии произведений, а лишь бесплатно и без коммерческой выгоды (не требуя взамен платы,
SMS и т.д.) предоставляет доступ к создаваемому пользователями каталогу ссылок на торрент-файлы, которые содержат только списки хеш-сумм.
Убедительная просьба с жалобами обращаться напрямую к пользователю, разместившему торрент файл.

Вверх