Loading...
Error

Воздух / Air (Кристиан Кантамесса) [2015 г., фантастика, триллер, WEB-DLRip] VO

Статистика раздачи
Размер:  1,37 GB   |    Зарегистрирован:  1 год 10 месяцев   |    Скачан:  73 раза

Полного источника не было: 9 дней

Сидов:  0  |  0 KB/s  ]   Личеров:  0  |  0 KB/s  ]

* - сиды/пиры с внешних источников

   
 
Автор Сообщение

Су-34 Пол:Муж

22-Авг-2015 17:50

Воздух / Air


Год выпуска: 2015
Жанр: фантастика, триллер
Страна: США
Режиссер: Кристиан Кантамесса
В ролях: Норман Ридус, Джимон Хонсу, Сандрин Холт, Майкл Хоган, Питер Бенсон, Дэвид Найкл, Паула Линдберг, Стив Бёрджесс
Сюжет фильма:
В центре сюжета два человека, герои Ридуса и Хонсу. Атмосфера стала совершенно непригодной для жизни, настал апокалипсис. Но у человечества еще есть шанс на спасение. Группа людей, ученых, выжила, благодаря криогенной заморозке. Только они способны спасти жизнь на Земле, и главным героям предстоит охранять их криогенный сон. Но, как оказалось, это задача не из самых простых. Впереди ребят ожидают неимоверные испытания.

  • Мировая премьера: 14 августа 2015


Качество видео: WEB-DLRip

Продолжительность: 01:34:26
Формат: AVI
Видео: XviD, 720x304, 1 874 kbps
Аудио: русский, одноголосый закадровый [любительский]Хихикающий доктор, AC3 2.0, 192 kbps

Код:

Format : AVI
 Format/Info : Audio Video Interleave
 File size : 1.37 GiB
 Duration : 1h 34mn
 Overall bit rate : 2 076 Kbps
 Writing application : VirtualDubMod 1.5.10.3 | www.virtualdub-fr.org || (build 2550/release)
 Writing library : VirtualDubMod build 2550/release

Video
 ID : 0
 Format : MPEG-4 Visual
 Format profile : Advanced Simple@L5
 Format settings, BVOP : Yes
 Format settings, QPel : No
 Format settings, GMC : No warppoints
 Format settings, Matrix : Custom
 Codec ID : XVID
 Codec ID/Hint : XviD
 Duration : 1h 34mn
 Bit rate : 1 874 Kbps
 Width : 720 pixels
 Height : 304 pixels
 Display aspect ratio : 2.35:1
 Frame rate : 23.976 fps
 Resolution : 8 bits
 Colorimetry : 4:2:0
 Scan type : Progressive
 Bits/(Pixel*Frame) : 0.357
 Stream size : 1.24 GiB (90%)
 Writing library : XviD 73

Audio
 ID : 1
 Format : AC-3
 Format/Info : Audio Coding 3
 Codec ID : 2000
 Duration : 1h 34mn
 Bit rate mode : Constant
 Bit rate : 192 Kbps
 Channel(s) : 2 channels
 Channel positions : L R
 Sampling rate : 44.1 KHz
 Stream size : 130 MiB (9%)
 Alignment : Split accross interleaves
 Interleave, duration : 42 ms (1.00 video frame)
 Interleave, preload duration : 500 ms
Семпл: http://multi-up.com/1063422

picpicpic
Для увеличения картинки щелкните мышкой по превью

Этот торрент недоступен для скачивания без регистрации, однако доступен по публичной magnet-ссылке (источники с публичных трекеров). Перед использованием ссылки прочтите, пожалуйста Пользовательское соглашение, а также как можно дольше оставайтесь на раздаче! Для того, чтобы скачать сам торрент-файл (который видит больше источников), а также для того, чтобы поблагодарить релизера, вам необходимо зарегистрироваться. Если регистрироваться лень - вы можете также попробовать скачать релиз по нашим партнерским ссылкам ниже.

[underverse.su].t57332.torrent
Трекер: Зарегистрирован   [ 22.08.2015 17:50 ]  

Статус: проверено (by makkol at 22.08.2015 22:17)
Поблагодарили: 2 человека
Тип торрента: публичный - доступные источники с открытых трекеров: 
Размер: 1,37 GB (занимает 0,31 DVDR, для записи нужно 1 болванка DVDR/RW)
 
 
Похожие темы
Форум Тема Автор Торрент Отв. Посл. сооб.
Зарубежное кино [DVDRip, Low-Res HDRip, и т.д.] Воздух / Air (Кристиан Кантамесса) [2015 г., фантастика, триллер, BDRip] MVO makkol
2 | 0

0 | 760

67

08.10.2015 10:09

Зарубежное кино [HDDVDRip / BDRip / WEB-DL / HDTV 1080/720р] Воздух / Air (Кристиан Кантамесса) [2015 г., фантастика, триллер, WEB-DL 720p] VO + Original makkol
8 | 0

0 | 1193

70

23.08.2015 11:39

Зарубежное кино [HDDVDRip / BDRip / WEB-DL / HDTV 1080/720р] Воздух / Air (Кристиан Кантамесса) [2015 г., Фантастика, BDRip 1080p] VO + Original + Subs (Eng) ultarasbarcelona
1 | 0

0 | 768

18

19.09.2015 15:55

Зарубежное кино [HDDVDRip / BDRip / WEB-DL / HDTV 1080/720р] Воздух / Air (Кристиан Кантамесса) [2015 г., фантастика, триллер, BDRip 1080p] MVO (Rus) + MVO (Ukr) + Original + Subs makkol
8 | 0

0 | 604

21

08.10.2015 10:20

Зарубежное кино [HDDVDRip / BDRip / WEB-DL / HDTV 1080/720р] Воздух / Air (Кристиан Кантамесса) [2015 г., фантастика, триллер, BDRip 720p] MVO (Rus) + MVO (Ukr) + Original + Subs makkol
1 | 0

0 | 878

21

08.10.2015 12:15



Последний раз редактировалось: Су-34 (23.08.2015 13:31), всего редактировалось 1 раз

makkol Пол:Муж

22-Авг-2015 22:16

В ''Новинки кино'' помещаются фильмы откровенно паршивого качества - CAMRip, TS и иже с ними, это для особо нетерпеливых. Здесь же качество вполне на уровне, WEBRip.
Неплохо бы указать автора озвучки, это Хихикающий доктор.

22-Авг-2015 22:17

Топик был перенесен из форума Новинки кино [CAMRip, TS, DVDScr, WP, TC] в форум Зарубежное кино [DVDRip, Low-Res HDRip, и т.д.]


makkol
 

Яндекс.Метрика powered by Sphinx


В Н И М А Н И Е
Сайт не распространяет и не хранит электронные версии произведений, а лишь бесплатно и без коммерческой выгоды (не требуя взамен платы,
SMS и т.д.) предоставляет доступ к создаваемому пользователями каталогу ссылок на торрент-файлы, которые содержат только списки хеш-сумм.
Убедительная просьба с жалобами обращаться напрямую к пользователю, разместившему торрент файл.

Вверх