Loading...
Error

Свободный охотник / Running Free (Стив Крошел) [1994 г., семейный, приключения, драма, DVB-AVC] DVO

Статистика раздачи
Размер:  1 GB   |    Зарегистрирован:  1 год 3 месяца   |    Скачан:  5 раз

Полного источника не было: 3 месяца 12 дней

Сидов:  0  |  0 KB/s  ]   Личеров:  0  |  0 KB/s  ]

* - сиды/пиры с внешних источников

   
 
Автор Сообщение

makkol Пол:Муж

22-Авг-2015 11:20

Свободный охотник / Running Free


Год выпуска: 1994
Жанр: семейный, приключения, драма
Производство: США [Trimark Pictures]
Режиссер: Стив Крошел
В ролях: Джесси Монтгомери Смит, Джеми Ли Мисфилдт, Майкл Пенья, Майкл Худ, Нил О’Лири, Джим Фаулер, Майк Микин, Джо Корнель, Лаура С. Трайон, Эд Раш
Сюжет фильма:
Лишившись привычных для себя городских развлечений, 12-летний Гэррет приезжает с матерью на Аляску. Поначалу он считает, что каникулы без телевизора, видеоигр и друзей будут невыносимо скучными. Но когда у Гэррета появляется новый друг - росомаха, он забывает о родном Сиэтле, поглощенный новыми приключениями и испытаниями в неизведанном мире.

Качество видео: DVB-AVC

Продолжительность: 01:27:48
Формат: MKV
Видео: MPEG-4 AVC, 720x576@1024x576 (16:9), 25.000 fps, 1476 kbps
Аудио: русский, профессиональный двухголосый закадровый (студия Акцент), MP2 2.0, 48 kHz, 128 kbps

Код:

Общее
Уникальный идентификатор                 : 206048134424281946128316327685264702008 (0x9B036D5D74E620E8BBA640726712FA38)
Полное имя                               : [apreder]Running_Free(1994)DVB.mkv
Формат                                   : Matroska
Версия формата                           : Version 2
Размер файла                             : 1,00 Гбайт
Продолжительность                        : 1 ч. 27 м.
Общий поток                              : 1636 Кбит/сек
Дата кодирования                         : UTC 2015-08-21 16:58:52
Программа кодирования                    : mkvmerge v8.3.0 ('Over the Horizon') 64bit
Библиотека кодирования                   : libebml v1.3.1 + libmatroska v1.4.2
Attachements                             : cover.jpg / cover_small.jpg
TITLE                                    : Running Free
IMDB                                     : tt0111036
DATE_RELEASED                            : 1994-00-00
LAW_RATING                               : 12+
GENRE                                    : Family, Drama
ACTOR                                    : Jesse Montgomery-Sythe, Jamie Lee Misfeldt, Michael Peña
DIRECTOR                                 : Steve Kroschel

Видео
Идентификатор                            : 1
Формат                                   : AVC
Формат/Информация                        : Advanced Video Codec
Профиль формата                          : High@L3
Параметр CABAC формата                   : Да
Параметр ReFrames формата                : 3 кадра
Идентификатор кодека                     : V_MPEG4/ISO/AVC
Продолжительность                        : 1 ч. 27 м.
Битрейт                                  : 1476 Кбит/сек
Ширина                                   : 720 пикселей
Высота                                   : 576 пикселей
Соотношение сторон                       : 16:9
Соотношение сторон в оригинале           : 16:9
Режим частоты кадров                     : Постоянный
Частота кадров                           : 25,000 кадров/сек
Стандарт вещания                         : PAL
Цветовое пространство                    : YUV
Субдискретизация насыщенности            : 4:2:0
Битовая глубина                          : 8 бит
Тип развёртки                            : Прогрессивная
Бит/(Пиксели*Кадры)                      : 0.142
Размер потока                            : 927 Мбайт (90%)
Default                                  : Да
Forced                                   : Нет

Аудио
Идентификатор                            : 2
Формат                                   : MPEG Audio
Версия формата                           : Version 1
Профиль формата                          : Layer 2
Идентификатор кодека                     : A_MPEG/L2
Идентификатор кодека/Подсказка           : MP2
Продолжительность                        : 1 ч. 27 м.
Вид битрейта                             : Постоянный
Битрейт                                  : 128 Кбит/сек
Каналы                                   : 2 канала
Частота                                  : 48,0 КГц
Метод сжатия                             : С потерями
Задержка видео                           : -16 мс.
Размер потока                            : 80,4 Мбайт (8%)
Язык                                     : Russian
Default                                  : Да
Forced                                   : Нет
picpicpicpicpic
Для увеличения картинки щелкните мышкой по превью

Этот торрент недоступен для скачивания без регистрации, однако доступен по публичной magnet-ссылке (источники с публичных трекеров). Перед использованием ссылки прочтите, пожалуйста Пользовательское соглашение, а также как можно дольше оставайтесь на раздаче! Для того, чтобы скачать сам торрент-файл (который видит больше источников), а также для того, чтобы поблагодарить релизера, вам необходимо зарегистрироваться. Если регистрироваться лень - вы можете также попробовать скачать релиз по нашим партнерским ссылкам ниже.

[underverse.su].t57327.torrent
Трекер: Зарегистрирован   [ 22.08.2015 11:20 ]  

Статус: проверено (by makkol at 22.08.2015 22:19)
Поблагодарили: 1 человек
Тип торрента: публичный - доступные источники с открытых трекеров: 
Размер: 1 GB (занимает 0,23 DVDR, для записи нужно 1 болванка DVDR/RW)
 
 
Похожие темы
Форум Тема Автор Торрент Отв. Посл. сооб.
T Зарубежное кино [DVDRip, Low-Res HDRip, и т.д.] Свободный штат Джонса / Free State of Jones (Гэри Росс / Gary Ross) [2016 г., боевик, драма, военный, биография, история, HDRip] MVO (Paradox & Omskbird records) 90ytr90
346 | 16

0 | 120

4

12.11.2016 05:00

T Зарубежное кино [DVDRip, Low-Res HDRip, и т.д.] Свободный штат Джонса / Free State of Jones (Гэри Росс / Gary Ross) [2016 г., боевик, драма, военный, биография, история, WEB-DLRip] MVO («КОЛОБОК») 90ytr90
481 | 11

0 | 388

27

07.09.2016 05:31

T Зарубежное кино [HDDVDRip / BDRip / WEB-DL / HDTV 1080/720р] Свободный штат Джонса / Free State of Jones (Гэри Росс / Gary Ross) [2016 г., боевик, драма, военный, биография, история, BDRip 720p] MVO (Синема УС) + Original (Eng) 90ytr90
90 | 6

0 | 69

6

12.11.2016 09:32

T Зарубежное кино [HDDVDRip / BDRip / WEB-DL / HDTV 1080/720р] Свободный штат Джонса / Free State of Jones (Гэри Росс / Gary Ross) [2016 г., боевик, драма, военный, биография, история, BDRip 1080p] MVO (Paradox & Omskbird records) + Original (Eng) 90ytr90
38 | 10

0 | 119

5

12.11.2016 05:06

T Зарубежное кино [HDDVDRip / BDRip / WEB-DL / HDTV 1080/720р] Свободный штат Джонса / Free State of Jones (Гэри Росс / Gary Ross) [2016 г., боевик, драма, военный, биография, история, WEB-DLRip 1080р] MVO («КОЛОБОК») 90ytr90
271 | 10

0 | 364

6

07.09.2016 05:37

T Зарубежное кино [HDDVDRip / BDRip / WEB-DL / HDTV 1080/720р] Свободный штат Джонса / Free State of Jones (Гэри Росс / Gary Ross) [2016 г., боевик, драма, военный, биография, история, WEB-DLRip 720р] MVO («КОЛОБОК») 90ytr90
303 | 14

0 | 308

5

07.09.2016 05:34


Яндекс.Метрика powered by Sphinx


В Н И М А Н И Е
Сайт не распространяет и не хранит электронные версии произведений, а лишь бесплатно и без коммерческой выгоды (не требуя взамен платы,
SMS и т.д.) предоставляет доступ к создаваемому пользователями каталогу ссылок на торрент-файлы, которые содержат только списки хеш-сумм.
Убедительная просьба с жалобами обращаться напрямую к пользователю, разместившему торрент файл.

Вверх