Loading...
Error

Мумитролли на Ривьере / Muumit Rivieralla (Ксавьер Пикард, Ханна Хемила) [2014 г., мультфильм, комедия, семейный, HDRip] Dub (Rus) + Lith

Статистика раздачи
Размер:  1,37 GB   |    Зарегистрирован:  1 год 3 месяца   |    Скачан:  40 раз

Полного источника не было: 1 день 11 часов

Сидов:  0  |  0 KB/s  ]   Личеров:  0  |  0 KB/s  ]

* - сиды/пиры с внешних источников

   
 
Автор Сообщение

makkol Пол:Муж

21-Авг-2015 14:33

Мумитролли на Ривьере / Muumit Rivieralla


Год выпуска: 2014
Жанр: мультфильм, комедия, семейный
Производство: Финляндия , Франция [Handle Productions, Moomin Characters, Pictak]
Режиссер: Ксавьер Пикард, Ханна Хемила
Роли озвучивали: Мария Сид, Матс Лонгбака, Кристофер Гуммерус, Альма Пёвсти, Рагни Грёнблом, Carl-Kristian Rundman, Ирина Бьёрклунд, Christoffer Strandberg, C.G. Wenzel, Беата Харью
Сюжет фильма:
В фильме Муми-тролли на Ривьере, вся семья Муми-троллей отправляется в увлекательное путешествие по роскошной Ривьере. Фрекен Снорк ослеплена вниманием богатого повесы, и Муми-тролль узнает, что такое ревность. После того, как Муми-папа становится другом аристократа и берет себе имя де Муми, уставшая Муми-мама возвращается к спокойной жизни на их старой лодке и ждет, когда образумятся остальные члены семьи. Впервые в жизни единство семьи Муми оказывается под угрозой.

  • Мировая премьера: 10 октября 2014


Качество видео: HDRip

Продолжительность: 01:16:00
Формат: AVI
Видео: XviD, 720x384 (1,85:1), 23.976 fps, 2023 kbps
Аудио #1: русский, дублированный (лицензия), AC3 2.0, 48 kHz, 192 kbps
Аудио #2: литовский, AC3 5.1, 48 kHz, 320 kbps

Код:

General
Complete name                            : Muumit Rivieralla HDRip.D.2014.1 37gb.avi
Format                                   : AVI
Format/Info                              : Audio Video Interleave
File size                                : 1.37 GiB
Duration                                 : 1h 16mn
Overall bit rate                         : 2 549 Kbps
Writing application                      : VirtualDubMod 1.5.10.2 (build 2540/release)
Writing library                          : VirtualDubMod build 2540/release

Video
ID                                       : 0
Format                                   : MPEG-4 Visual
Format profile                           : Advanced Simple@L5
Format settings, BVOP                    : 2
Format settings, QPel                    : No
Format settings, GMC                     : No warppoints
Format settings, Matrix                  : Default (MPEG)
Codec ID                                 : XVID
Codec ID/Hint                            : XviD
Duration                                 : 1h 16mn
Bit rate                                 : 2 023 Kbps
Width                                    : 720 pixels
Height                                   : 384 pixels
Display aspect ratio                     : 1.85:1
Frame rate                               : 23.976 fps
Color space                              : YUV
Chroma subsampling                       : 4:2:0
Bit depth                                : 8 bits
Scan type                                : Progressive
Compression mode                         : Lossy
Bits/(Pixel*Frame)                       : 0.305
Stream size                              : 1.08 GiB (79%)
Writing library                          : XviD 1.2.1 (UTC 2008-12-04)

Audio #1
ID                                       : 1
Format                                   : AC-3
Format/Info                              : Audio Coding 3
Mode extension                           : CM (complete main)
Format settings, Endianness              : Big
Codec ID                                 : 2000
Duration                                 : 1h 16mn
Bit rate mode                            : Constant
Bit rate                                 : 192 Kbps
Channel count                            : 2 channels
Channel positions                        : Front: L R
Sampling rate                            : 48.0 KHz
Bit depth                                : 16 bits
Compression mode                         : Lossy
Stream size                              : 105 MiB (8%)
Alignment                                : Split accross interleaves
Interleave, duration                     : 42 ms (1.00 video frame)
Interleave, preload duration             : 500 ms

Audio #2
ID                                       : 2
Format                                   : AC-3
Format/Info                              : Audio Coding 3
Mode extension                           : CM (complete main)
Format settings, Endianness              : Big
Codec ID                                 : 2000
Duration                                 : 1h 16mn
Bit rate mode                            : Constant
Bit rate                                 : 320 Kbps
Channel count                            : 6 channels
Channel positions                        : Front: L C R, Side: L R, LFE
Sampling rate                            : 48.0 KHz
Bit depth                                : 16 bits
Compression mode                         : Lossy
Stream size                              : 176 MiB (13%)
Alignment                                : Split accross interleaves
Interleave, duration                     : 42 ms (1.00 video frame)
Interleave, preload duration             : 500 ms
picpicpicpicpic
Для увеличения картинки щелкните мышкой по превью

Этот торрент недоступен для скачивания без регистрации, однако доступен по публичной magnet-ссылке (источники с публичных трекеров). Перед использованием ссылки прочтите, пожалуйста Пользовательское соглашение, а также как можно дольше оставайтесь на раздаче! Для того, чтобы скачать сам торрент-файл (который видит больше источников), а также для того, чтобы поблагодарить релизера, вам необходимо зарегистрироваться. Если регистрироваться лень - вы можете также попробовать скачать релиз по нашим партнерским ссылкам ниже.

[underverse.su].t57310.torrent
Трекер: Зарегистрирован   [ 21.08.2015 14:33 ]  

Статус: проверено (by makkol at 19.11.2015 23:23)
Поблагодарили: пока никто не поблагодарил...
Тип торрента: публичный - доступные источники с открытых трекеров: 
Размер: 1,37 GB (занимает 0,31 DVDR, для записи нужно 1 болванка DVDR/RW)
 
 
Похожие темы
Форум Тема Автор Торрент Отв. Посл. сооб.
Мультфильмы [HDDVDRip / BDRip / WEB-DL / HDTV 1080/720р] Мумитролли на Ривьере / Muumit Rivieralla (Ксавьер Пикард, Ханна Хемила) [2014 г., мультфильм, комедия, семейный, BDRip 1080p] Dub + Original makkol
7 | 0

0 | 666

11

21.08.2015 14:45


Яндекс.Метрика powered by Sphinx


В Н И М А Н И Е
Сайт не распространяет и не хранит электронные версии произведений, а лишь бесплатно и без коммерческой выгоды (не требуя взамен платы,
SMS и т.д.) предоставляет доступ к создаваемому пользователями каталогу ссылок на торрент-файлы, которые содержат только списки хеш-сумм.
Убедительная просьба с жалобами обращаться напрямую к пользователю, разместившему торрент файл.

Вверх