Loading...
Error

Мятежный генерал: Джохар Дудаев [2011 г., документальный, WebRip]

Статистика раздачи
Размер:  201 MB   |    Зарегистрирован:  1 год 3 месяца   |    Скачан:  14 раз

Полного источника не было: 5 месяцев 1 день

Сидов:  0  |  0 KB/s  ]   Личеров:  0  |  0 KB/s  ]

* - сиды/пиры с внешних источников

   
 
Автор Сообщение

ARI71 Пол:Муж

21-Авг-2015 07:15

Мятежный генерал: Джохар Дудаев


Год выпуска: 2011
Жанр: документальный, биография
Страна: Россия
В ролях: родные Д. Дудаева
Сюжет фильма:
Большую часть своей жизни Джохар Дудаев был образцовым советским офицером. Он воевал в Афганистане, командовал дивизией ВВС, был награжден орденами и медалями СССР. Политическую карьеру, стоившую ему жизни, начал после 45. В 1996 году президент самопровозглашённой Ичкерии был убит, а Чечня на ближайшее десятилетие стала территорией войны.
Алла и Джохар Дудаевы вместе прожили почти 30 лет, вырастили троих детей. Cпециально для проекта "Дни затмения", Алла Дудаева рассказала о своем муже, вспомнила события почти полувековой давности и прокомментировала старые фотографии.
Качество видео: WebRip

Продолжительность: 00:20:55
Формат: MKV
Видео: MPEG-4 AVC, 1280x720, 1184 kbps
Аудио: русский, оригинал, AAC 2.0, 156 kbps
Джоха́р Муса́евич Дуда́ев (чеч. Дудийн Муса-кIант Жовхар; 15 февраля 1944 года, Ялхорой, Чечено-Ингушская АССР — предположительно 21 апреля 1996 года, Гехи-чу, Чеченская Республика) — чеченский политический деятель, лидер чеченского сепаратистского движения 1990-х годов, первый президент Чеченской Республики Ичкерия (1991—1996). В прошлом — генерал-майор авиации, единственный генерал-чеченец в Советской Армии. Член КПСС с 1968 года. Генералиссимус ЧРИ (1996)

Код:

Общее
Полное имя : D:\dudaev_myatejniy_general.mkv
Формат : MPEG-4
Профиль формата : Base Media
Идентификатор кодека : isom
Размер файла : 201 Мбайт
Продолжительность : 20 м.
Режим общего битрейта : Переменный
Общий поток : 1344 Кбит/сек
Дата кодирования : UTC 2011-09-18 08:11:38
Дата пометки : UTC 2011-09-19 08:11:43

Видео
Идентификатор : 1
Формат : AVC
Формат/Информация : Advanced Video Codec
Профиль формата : High@L3.1
Параметр CABAC формата : Да
Параметр ReFrames формата : 4 кадра
Идентификатор кодека : avc1
Идентификатор кодека/Информация : Advanced Video Coding
Продолжительность : 20 м.
Битрейт : 1184 Кбит/сек
Максимальный битрейт : 6161 Кбит/сек
Ширина : 1280 пикселей
Высота : 720 пикселей
Соотношение сторон : 16:9
Режим частоты кадров : Постоянный
Частота кадров : 29,970 кадров/сек
Цветовое пространство : YUV
Субдискретизация насыщенности : 4:2:0
Битовая глубина : 8 бит
Тип развёртки : Прогрессивная
Бит/(Пиксели*Кадры) : 0.043
Размер потока : 177 Мбайт (88%)
Библиотека кодирования : Vimeo Encoder
Дата кодирования : UTC 2011-09-18 08:11:38
Дата пометки : UTC 2011-09-18 08:11:41

Аудио
Идентификатор : 2
Формат : AAC
Формат/Информация : Advanced Audio Codec
Профиль формата : LC
Идентификатор кодека : 40
Продолжительность : 20 м.
Вид битрейта : Переменный
Битрейт : 156 Кбит/сек
Максимальный битрейт : 230 Кбит/сек
Каналы : 2 канала
Расположение каналов : Front: L R
Частота : 44,1 КГц
Метод сжатия : С потерями
Размер потока : 23,3 Мбайт (12%)
Дата кодирования : UTC 2011-09-18 08:11:40
Дата пометки : UTC 2011-09-18 08:11:41














Этот торрент недоступен для скачивания без регистрации, однако доступен по публичной magnet-ссылке (источники с публичных трекеров). Перед использованием ссылки прочтите, пожалуйста Пользовательское соглашение, а также как можно дольше оставайтесь на раздаче! Для того, чтобы скачать сам торрент-файл (который видит больше источников), а также для того, чтобы поблагодарить релизера, вам необходимо зарегистрироваться. Если регистрироваться лень - вы можете также попробовать скачать релиз по нашим партнерским ссылкам ниже.

[underverse.su].t57302.torrent
Трекер: Зарегистрирован   [ 21.08.2015 07:15 ]  

Статус: проверено (by makkol at 21.08.2015 11:36)
Поблагодарили: 1 человек
Тип торрента: публичный - доступные источники с открытых трекеров: 
Размер: 201 MB (занимает 0,04 DVDR, для записи нужно 1 болванка DVDR/RW)
 
 

Яндекс.Метрика powered by Sphinx


В Н И М А Н И Е
Сайт не распространяет и не хранит электронные версии произведений, а лишь бесплатно и без коммерческой выгоды (не требуя взамен платы,
SMS и т.д.) предоставляет доступ к создаваемому пользователями каталогу ссылок на торрент-файлы, которые содержат только списки хеш-сумм.
Убедительная просьба с жалобами обращаться напрямую к пользователю, разместившему торрент файл.

Вверх