Loading...
Error

Драконы Камелота / Dragons of Camelot (Марк Л. Лестер) [2014 г., фэнтези, HDRip-AVC] VO + Original + Subs (Eng)

Статистика раздачи
Размер:  1,88 GB   |    Зарегистрирован:  1 год 3 месяца   |    Скачан:  14 раз

Полного источника не было: 10 месяцев

Сидов:  0  |  0 KB/s  ]   Личеров:  0  |  0 KB/s  ]

* - сиды/пиры с внешних источников

   
 
Автор Сообщение

makkol Пол:Муж

20-Авг-2015 15:44

Драконы Камелота / Dragons of Camelot


Год выпуска: 2014
Жанр: фэнтези
Производство: США [Titan Global Entertainment]
Режиссер: Марк Л. Лестер
В ролях: Марк Гриффин, Джеймс Нитти, Сандра Дарнелл, Том Латимер, Селина Джайлс, Андрей Джарвис, Крейг Райдер, Ник Корнуолл, Уильям Хью, Дилан Джонс, Саймон Блад Девей, Энди Батчер, Уильям Б. Ханнаби, Кристофер Хьюз
Сюжет фильма:
Королевство Камелота погружено в тьму после смерти благородного короля Артура. Правление перешло в руки жестокой колдуньи, сестры Морган. Командуя тремя могущественными драконами с помощью темной магии, она охотится на оставшихся рыцарей Круглого стола. Юный Галахад понимает, что для того, чтобы добиться успеха, он должен найти других рыцарей и отца, Ланселота, который был в изгнании в течение многих лет. Только тогда они смогут вернуться в Камелот, убить Морган и ее драконов и спасти леди Гвиневер и волшебника Мерлина.

  • Мировая премьера: 8 сентября 2014


Перевод: anton1
Озвучивание: Хихикающий доктор

Качество видео: HDRip-AVC

Продолжительность: 01:20:21
Формат: MKV
Видео: MPEG-4 AVC, 1024x576 (16:9), 23.976 fps, 2455 kbps
Аудио #1: русский, любительский одноголосый закадровый, AC3 5.1, 48 kHz, 448 kbps
Аудио #2: английский, оригинал, AC3 5.1, 48 kHz, 448 kbps
Субтитры: английские вшитые отключаемые

Код:

General
Unique ID : 194421005716399379242685670458727095242 (0x92441FA903C2EF06B18EEF471FD05BCA)
Complete name : Dragons.of.Camelot.2014.xixidok.HDRip.AVC.ExKinoRay.mkv
Format : Matroska
Format version : Version 4 / Version 2
File size : 1.88 GiB
Duration : 1h 20mn
Overall bit rate : 3 349 Kbps
Movie name : Dragons of Camelot 2014 from ExKinoRay
Encoded date : UTC 2015-08-19 11:18:19
Writing application : mkvmerge v6.6.0 ('The Edge Of The In Between') built on Dec 1 2013 17:55:00
Writing library : libebml v1.3.0 + libmatroska v1.4.1

Video
ID : 1
Format : AVC
Format/Info : Advanced Video Codec
Format profile : High@L4.1
Format settings, CABAC : Yes
Format settings, ReFrames : 10 frames
Codec ID : V_MPEG4/ISO/AVC
Duration : 1h 20mn
Bit rate : 2 455 Kbps
Width : 1 024 pixels
Height : 576 pixels
Display aspect ratio : 16:9
Frame rate mode : Constant
Frame rate : 23.976 fps
Color space : YUV
Chroma subsampling : 4:2:0
Bit depth : 8 bits
Scan type : Progressive
Bits/(Pixel*Frame) : 0.174
Stream size : 1.34 GiB (71%)
Title : Enigma
Writing library : x264 core 133 r2334 a3ac64b
Encoding settings : cabac=1 / ref=10 / deblock=1:-2:-2 / analyse=0x3:0x113 / me=umh / subme=10 / psy=1 / psy_rd=1.05:0.15 / mixed_ref=1 / me_range=32 / chroma_me=1 / trellis=2 / 8x8dct=1 / cqm=0 / deadzone=21,11 / fast_pskip=0 / chroma_qp_offset=-3 / threads=12 / lookahead_threads=2 / sliced_threads=0 / nr=0 / decimate=0 / interlaced=0 / bluray_compat=0 / constrained_intra=0 / bframes=8 / b_pyramid=2 / b_adapt=2 / b_bias=0 / direct=3 / weightb=1 / open_gop=0 / weightp=2 / keyint=240 / keyint_min=23 / scenecut=40 / intra_refresh=0 / rc_lookahead=40 / rc=2pass / mbtree=0 / bitrate=2455 / ratetol=1.0 / qcomp=0.60 / qpmin=0 / qpmax=51 / qpstep=4 / cplxblur=20.0 / qblur=0.5 / vbv_maxrate=50000 / vbv_bufsize=62500 / nal_hrd=none / ip_ratio=1.40 / pb_ratio=1.30 / aq=1:1.00
Language : English
Default : Yes
Forced : No
Color primaries : BT.709
Transfer characteristics : BT.709
Matrix coefficients : BT.709

Audio #1
ID : 2
Format : AC-3
Format/Info : Audio Coding 3
Mode extension : CM (complete main)
Format settings, Endianness : Big
Codec ID : A_AC3
Duration : 1h 20mn
Bit rate mode : Constant
Bit rate : 448 Kbps
Channel(s) : 6 channels
Channel positions : Front: L C R, Side: L R, LFE
Sampling rate : 48.0 KHz
Bit depth : 16 bits
Compression mode : Lossy
Stream size : 257 MiB (13%)
Title : xixidok
Language : Russian
Default : Yes
Forced : No

Audio #2
ID : 3
Format : AC-3
Format/Info : Audio Coding 3
Mode extension : CM (complete main)
Format settings, Endianness : Big
Codec ID : A_AC3
Duration : 1h 20mn
Bit rate mode : Constant
Bit rate : 448 Kbps
Channel(s) : 6 channels
Channel positions : Front: L C R, Side: L R, LFE
Sampling rate : 48.0 KHz
Bit depth : 16 bits
Compression mode : Lossy
Stream size : 257 MiB (13%)
Language : English
Default : No
Forced : No

Text
ID : 4
Format : UTF-8
Codec ID : S_TEXT/UTF8
Codec ID/Info : UTF-8 Plain Text
Language : English
Default : No
Forced : No

Menu
00:00:00.000 : en:Chapter 1
00:07:40.751 : en:Chapter 2
00:13:47.576 : en:Chapter 3
00:20:48.789 : en:Chapter 4
00:27:22.807 : en:Chapter 5
00:33:40.143 : en:Chapter 6
00:40:14.495 : en:Chapter 7
00:47:01.026 : en:Chapter 8
00:55:16.938 : en:Chapter 9
01:02:48.681 : en:Chapter 10
01:09:41.177 : en:Chapter 11
01:15:49.127 : en:Chapter 12
01:20:20.565 : en:Chapter 13
Релиз:

picpicpicpicpic
Для увеличения картинки щелкните мышкой по превью

Этот торрент недоступен для скачивания без регистрации, однако доступен по публичной magnet-ссылке (источники с публичных трекеров). Перед использованием ссылки прочтите, пожалуйста Пользовательское соглашение, а также как можно дольше оставайтесь на раздаче! Для того, чтобы скачать сам торрент-файл (который видит больше источников), а также для того, чтобы поблагодарить релизера, вам необходимо зарегистрироваться. Если регистрироваться лень - вы можете также попробовать скачать релиз по нашим партнерским ссылкам ниже.

[underverse.su].t57280.torrent
Трекер: Зарегистрирован   [ 20.08.2015 15:44 ]  

Статус: проверено (by makkol at 22.08.2015 10:43)
Поблагодарили: 1 человек
Тип торрента: публичный - доступные источники с открытых трекеров: 
Размер: 1,88 GB (занимает 0,43 DVDR, для записи нужно 1 болванка DVDR/RW)
 
 
Похожие темы
Форум Тема Автор Торрент Отв. Посл. сооб.
Зарубежное кино [DVDRip, Low-Res HDRip, и т.д.] Драконы Камелота / Dragons of Camelot (Марк Л. Лестер) [2014 г., фэнтези, HDRip] VO makkol
7 | 0

0 | 349

18

20.08.2015 15:19

Зарубежное кино [HDDVDRip / BDRip / WEB-DL / HDTV 1080/720р] Драконы Камелота / Dragons of Camelot (Марк Л. Лестер) [2014 г., фэнтези, BDRip 1080p] VO + Original + Subs (Eng) makkol
4 | 0

0 | 373

10

20.08.2015 15:34


Яндекс.Метрика powered by Sphinx


В Н И М А Н И Е
Сайт не распространяет и не хранит электронные версии произведений, а лишь бесплатно и без коммерческой выгоды (не требуя взамен платы,
SMS и т.д.) предоставляет доступ к создаваемому пользователями каталогу ссылок на торрент-файлы, которые содержат только списки хеш-сумм.
Убедительная просьба с жалобами обращаться напрямую к пользователю, разместившему торрент файл.

Вверх