Loading...
Error

Драконы Камелота / Dragons of Camelot (Марк Л. Лестер) [2014 г., фэнтези, HDRip] VO

Статистика раздачи
Размер:  1,37 GB   |    Зарегистрирован:  1 год 3 месяца   |    Скачан:  18 раз

Полного источника не было: 9 месяцев

Сидов:  0  |  0 KB/s  ]   Личеров:  0  |  0 KB/s  ]

* - сиды/пиры с внешних источников

   
 
Автор Сообщение

makkol Пол:Муж

20-Авг-2015 15:19

Драконы Камелота / Dragons of Camelot


Год выпуска: 2014
Жанр: фэнтези
Производство: США [Titan Global Entertainment]
Режиссер: Марк Л. Лестер
В ролях: Марк Гриффин, Джеймс Нитти, Сандра Дарнелл, Том Латимер, Селина Джайлс, Андрей Джарвис, Крейг Райдер, Ник Корнуолл, Уильям Хью, Дилан Джонс, Саймон Блад Девей, Энди Батчер, Уильям Б. Ханнаби, Кристофер Хьюз
Сюжет фильма:
Королевство Камелота погружено в тьму после смерти благородного короля Артура. Правление перешло в руки жестокой колдуньи, сестры Морган. Командуя тремя могущественными драконами с помощью темной магии, она охотится на оставшихся рыцарей Круглого стола. Юный Галахад понимает, что для того, чтобы добиться успеха, он должен найти других рыцарей и отца, Ланселота, который был в изгнании в течение многих лет. Только тогда они смогут вернуться в Камелот, убить Моргану и ее драконов и спасти леди Гвиневер и волшебника Мерлина.

  • Мировая премьера: 8 сентября 2014


Перевод: anton1
Озвучивание: Хихикающий доктор

Качество видео: HDRip

Продолжительность: 01:20:21
Формат: AVI
Видео: XviD, 720x400 (16:9), 23.976 fps, 1987 kbps
Аудио: русский, любительский одноголосый закадровый, AC3 5.1, 48 kHz, 448 kbps

Код:

Общее
Полное имя : Dragons.of.Camelot.2014.xixidok.HDRip.ExKinoRay.avi
Формат : AVI
Формат/Информация : Audio Video Interleave
Размер файла : 1,37 Гбайт
Продолжительность : 1 ч. 20 м.
Общий поток : 2444 Кбит/сек
Программа кодирования : VirtualDubMod 1.5.10.3 | www.virtualdub-fr.org || (build 2550/release)
Библиотека кодирования : VirtualDubMod build 2550/release

Видео
Идентификатор : 0
Формат : MPEG-4 Visual
Профиль формата : Advanced Simple@L5
Параметр BVOP формата : 1
Параметр QPel формата : Нет
Параметр GMC формата : Без точки перехода
Параметр матрицы формата : Выборочная
Идентификатор кодека : XVID
Идентификатор кодека/Подсказка : XviD
Продолжительность : 1 ч. 20 м.
Битрейт : 1987 Кбит/сек
Ширина : 720 пикселей
Высота : 400 пикселей
Соотношение сторон : 16:9
Частота кадров : 23,976 кадра/сек
Цветовое пространство : YUV
Субдискретизация насыщенности : 4:2:0
Битовая глубина : 8 бит
Тип развёртки : Прогрессивная
Метод сжатия : С потерями
Бит/(Пиксели*Кадры) : 0.288
Размер потока : 1,11 Гбайт (81%)
Библиотека кодирования : XviD 73

Аудио
Идентификатор : 1
Формат : AC-3
Формат/Информация : Audio Coding 3
Расширение режима : CM (complete main)
Параметр Endianness формата : Big
Идентификатор кодека : 2000
Продолжительность : 1 ч. 20 м.
Вид битрейта : Постоянный
Битрейт : 448 Кбит/сек
Каналы : 6 каналов
Расположение каналов : Front: L C R, Side: L R, LFE
Частота : 48,0 КГц
Битовая глубина : 16 бит
Метод сжатия : С потерями
Размер потока : 257 Мбайт (18%)
Выравнивание : Разделение по промежуткам
Продолжительность промежутка : 42 мс. (1,00 видеокадр)
Время предзагрузки промежутка : 500 мс.
Релиз:

picpicpicpicpic
Для увеличения картинки щелкните мышкой по превью

Этот торрент недоступен для скачивания без регистрации, однако доступен по публичной magnet-ссылке (источники с публичных трекеров). Перед использованием ссылки прочтите, пожалуйста Пользовательское соглашение, а также как можно дольше оставайтесь на раздаче! Для того, чтобы скачать сам торрент-файл (который видит больше источников), а также для того, чтобы поблагодарить релизера, вам необходимо зарегистрироваться. Если регистрироваться лень - вы можете также попробовать скачать релиз по нашим партнерским ссылкам ниже.

[underverse.su].t57278.torrent
Трекер: Зарегистрирован   [ 20.08.2015 15:19 ]  

Статус: проверено (by makkol at 22.08.2015 10:12)
Поблагодарили: пока никто не поблагодарил...
Тип торрента: публичный - доступные источники с открытых трекеров: 
Размер: 1,37 GB (занимает 0,31 DVDR, для записи нужно 1 болванка DVDR/RW)
 
 
Похожие темы
Форум Тема Автор Торрент Отв. Посл. сооб.
Зарубежное кино [DVDRip, Low-Res HDRip, и т.д.] Драконы Камелота / Dragons of Camelot (Марк Л. Лестер) [2014 г., фэнтези, HDRip-AVC] VO + Original + Subs (Eng) makkol
1 | 0

0 | 558

14

20.08.2015 15:44

Зарубежное кино [HDDVDRip / BDRip / WEB-DL / HDTV 1080/720р] Драконы Камелота / Dragons of Camelot (Марк Л. Лестер) [2014 г., фэнтези, BDRip 1080p] VO + Original + Subs (Eng) makkol
4 | 0

0 | 374

10

20.08.2015 15:34


Яндекс.Метрика powered by Sphinx


В Н И М А Н И Е
Сайт не распространяет и не хранит электронные версии произведений, а лишь бесплатно и без коммерческой выгоды (не требуя взамен платы,
SMS и т.д.) предоставляет доступ к создаваемому пользователями каталогу ссылок на торрент-файлы, которые содержат только списки хеш-сумм.
Убедительная просьба с жалобами обращаться напрямую к пользователю, разместившему торрент файл.

Вверх