Loading...
Error

Мстители: Эра Альтрона / Avengers: Age of Ultron (Джосс Уидон) [2015 г., фантастика, боевик, триллер, приключения, WEB-DLRip] Dub (звук с TS)

Статистика раздачи
Размер:  2,05 GB   |    Зарегистрирован:  1 год 3 месяца   |    Скачан:  41 раз

Полного источника не было: 4 дня

Сидов:  0  |  0 KB/s  ]   Личеров:  0  |  0 KB/s  ]

* - сиды/пиры с внешних источников

   
 
Автор Сообщение

makkol Пол:Муж

20-Авг-2015 14:41

Мстители: Эра Альтрона / Avengers: Age of Ultron


Год выпуска: 2015
Жанр: фантастика, боевик, триллер, приключения
Производство: США [Marvel Studios Inc.]
Режиссер: Джосс Уидон
В ролях: Роберт Дауни мл., Крис Хемсворт, Крис Эванс, Скарлетт Йоханссон, Марк Руффало, Джереми Реннер, Аарон Тейлор-Джонсон, Элизабет Олсен, Джеймс Спэйдер, Сэмюэл Л. Джексон
Сюжет фильма:
Человечество на грани уничтожения. На этот раз людям угрожает Альтрон — искусственный интеллект, ранее созданный для того, чтобы защищать Землю от любых угроз. Однако, главной угрозой он посчитал человечество. Международная организация Щ. И. Т. распалась, и теперь мир не способен справиться с таким мощным врагом, потому люди вновь обращаются за помощью к Величайшим Героям Земли — Мстителям. Однако Альтрон слишком силен, и есть большая вероятность, что даже им не удастся остановить начало надвигающейся Эры Альтрона, где нет места для людей…

  • Мировая премьера: 13 апреля 2015
  • Российская премьера: 23 апреля 2015
  • Релиз на Blu-Ray и DVD: 2 октября 2015


Качество видео: WEB-DLRip

Продолжительность: 02:21:39
Формат: AVI
Видео: XviD, 704x288 (2.40:1), 23.976 fps, 1841 kbps
Аудио: русский, дублированный (звук с TS), MP3 2.0, 48 kHz, 192 kbps

Код:

General
Complete name                            : MCT1teL1.ePa.ALtP0Ha.2015.Dt.WEB-DLRip.2100Mb.avi
Format                                   : AVI
Format/Info                              : Audio Video Interleave
Format profile                           : OpenDML
File size                                : 2.05 GiB
Duration                                 : 2h 21mn
Overall bit rate                         : 2 075 Kbps
Writing application                      : VirtualDubMod 1.5.10.2 (build 2540/release)
Writing library                          : VirtualDubMod build 2540/release

Video
ID                                       : 0
Format                                   : MPEG-4 Visual
Format profile                           : Advanced Simple@L5
Format settings, BVOP                    : 2
Format settings, QPel                    : No
Format settings, GMC                     : No warppoints
Format settings, Matrix                  : Default (MPEG)
Codec ID                                 : XVID
Codec ID/Hint                            : XviD
Duration                                 : 2h 21mn
Bit rate                                 : 1 871 Kbps
Width                                    : 704 pixels
Height                                   : 288 pixels
Display aspect ratio                     : 2.40:1
Frame rate                               : 23.976 fps
Color space                              : YUV
Chroma subsampling                       : 4:2:0
Bit depth                                : 8 bits
Scan type                                : Progressive
Compression mode                         : Lossy
Bits/(Pixel*Frame)                       : 0.385
Stream size                              : 1.85 GiB (90%)
Writing library                          : XviD 1.2.1 (UTC 2008-12-04)

Audio
ID                                       : 1
Format                                   : MPEG Audio
Format version                           : Version 1
Format profile                           : Layer 3
Mode                                     : Joint stereo
Codec ID                                 : 55
Codec ID/Hint                            : MP3
Duration                                 : 2h 21mn
Bit rate mode                            : Constant
Bit rate                                 : 192 Kbps
Channel count                            : 2 channels
Sampling rate                            : 48.0 KHz
Compression mode                         : Lossy
Stream size                              : 194 MiB (9%)
Alignment                                : Aligned on interleaves
Interleave, duration                     : 42 ms (1.00 video frame)
Interleave, preload duration             : 504 ms
picpicpicpicpic
Для увеличения картинки щелкните мышкой по превью

Этот торрент недоступен для скачивания без регистрации, однако доступен по публичной magnet-ссылке (источники с публичных трекеров). Перед использованием ссылки прочтите, пожалуйста Пользовательское соглашение, а также как можно дольше оставайтесь на раздаче! Для того, чтобы скачать сам торрент-файл (который видит больше источников), а также для того, чтобы поблагодарить релизера, вам необходимо зарегистрироваться. Если регистрироваться лень - вы можете также попробовать скачать релиз по нашим партнерским ссылкам ниже.

[underverse.su].t57275.torrent
Трекер: Зарегистрирован   [ 20.08.2015 14:41 ]  

Статус: T временная (by makkol at 21.08.2015 22:08)
Поблагодарили: пока никто не поблагодарил...
Тип торрента: публичный - доступные источники с открытых трекеров: 
Размер: 2,05 GB (занимает 0,47 DVDR, для записи нужно 1 болванка DVDR/RW)
 
 
Похожие темы
Форум Тема Автор Торрент Отв. Посл. сооб.
Зарубежное кино [DVDRip, Low-Res HDRip, и т.д.] Мстители: Гримм / Avengers Grimm (Джереми Инман) [2015 г., фантастика, фэнтези, боевик, приключения, WEB-DLRip] VO [datynet] + Original Паукан
7 | 0

2 | 1799

90

18.05.2015 18:14

T Зарубежное кино [DVDRip, Low-Res HDRip, и т.д.] Мстители: Эра Альтрона / Avengers: Age of Ultron (Джосс Уидон) [2015 г., фантастика, боевик, триллер, приключения, WEB-DLRip] Dub (Line) makkol
2 | 0

0 | 1220

168

21.08.2015 22:52

T Зарубежное кино [DVDRip, Low-Res HDRip, и т.д.] Мстители: Эра Альтрона / Avengers: Age of Ultron (Джосс Уидон) [2015 г., фантастика, боевик, триллер, приключения, WEB-DLRip] Dub makkol
9 | 0

0 | 675

42

07.09.2015 22:33

Мультсериалы Мстители: Сильнейшие Герои Земли / The Avengers: Earth's Mightiest Heroes / Сезон: 1, серии: 1-26 из 26 (Винтон Хёк, Сайро Нили ) [2010 г., мультсериал,фантастика,боевик,приключения, DVDRip] МУХА~
1 | 0

2 | 1402

23

27.04.2012 20:35

T Зарубежное кино [HDDVDRip / BDRip / WEB-DL / HDTV 1080/720р] Мстители: Эра Альтрона / Avengers: Age of Ultron (Джосс Уидон) [2015 г., фантастика, боевик, триллер, приключения, WEB-DL 720p] Dub (звук с TS) + Original + Subs (Eng) makkol
15 | 3

0 | 782

41

20.08.2015 14:56

T Зарубежное кино [HDDVDRip / BDRip / WEB-DL / HDTV 1080/720р] Мстители: Эра Альтрона / Avengers: Age of Ultron (Джосс Уидон) [2015 г., фантастика, боевик, триллер, приключения, WEB-DL 720p] Dub (Line) + Original + Subs (Eng) makkol
1 | 0

1 | 1120

125

24.08.2015 21:53

T Зарубежное кино [HDDVDRip / BDRip / WEB-DL / HDTV 1080/720р] Мстители: Эра Альтрона / Avengers: Age of Ultron (Джосс Уидон) [2015 г., Фантастика, боевик, триллер, приключения, WEB-DL 1080p] Original + Dub (чистый звук) romeoexpert
1 | 0

0 | 1166

93

22.08.2015 13:20

T Зарубежное кино [HDDVDRip / BDRip / WEB-DL / HDTV 1080/720р] Мстители: Эра Альтрона / Avengers: Age of Ultron (Джосс Уидон) [2015 г., фантастика, боевик, триллер, приключения, WEB-DL 720p] Dub + Original makkol
6 | 0

0 | 584

36

07.09.2015 22:45

T Зарубежное кино [HDDVDRip / BDRip / WEB-DL / HDTV 1080/720р] Мстители: Эра Альтрона / Avengers: Age of Ultron (Джосс Уидон) [2015 г., фантастика, боевик, триллер, приключения, WEB-DL 1080p] Dub + Original + Subs makkol
1 | 0

0 | 513

21

07.09.2015 23:01

Зарубежное кино [HDDVDRip / BDRip / WEB-DL / HDTV 1080/720р] Мстители: Эра Альтрона 3D / Avengers: Age of Ultron 3D (Джосс Уидон) [2015 г., Фантастика, боевик, триллер, приключения, BDRip 1080p] Dub + Original + Subs vester78
0 | 0

2 | 1319

32

21.09.2015 20:32


Яндекс.Метрика powered by Sphinx


В Н И М А Н И Е
Сайт не распространяет и не хранит электронные версии произведений, а лишь бесплатно и без коммерческой выгоды (не требуя взамен платы,
SMS и т.д.) предоставляет доступ к создаваемому пользователями каталогу ссылок на торрент-файлы, которые содержат только списки хеш-сумм.
Убедительная просьба с жалобами обращаться напрямую к пользователю, разместившему торрент файл.

Вверх