Loading...
Error

Малыш / Little Boy (Алехандро Гомес Монтеверде) [2015 г., драма, комедия, военный, HDRip] VO

Статистика раздачи
Размер:  1,36 GB   |    Зарегистрирован:  1 год 3 месяца   |    Скачан:  31 раз
Сидов:  1  |  0 KB/s  ]   Личеров:  0  |  0 KB/s  ]

* - сиды/пиры с внешних источников

   
 
Автор Сообщение

makkol Пол:Муж

19-Авг-2015 22:11

Малыш / Little Boy


Год выпуска: 2015
Жанр: драма, комедия, военный
Производство: Мексика , США [Metanoia Films]
Режиссер: Алехандро Гомес Монтеверде
В ролях: Кевин Джеймс, Эли Ландри, Дэвид Хенри, Эмили Уотсон, Майкл Рапапорт, Тед Левайн, Том Уилкинсон, Абрахам Бенруби, Кэри-Хироюки Тагава, Бен Чаплин
Сюжет фильма:
Это военная драма, рассказывающая о судьбе небольшой семьи, которую как и тысячи других, затронули трагические события Второй мировой войны. Маленький мальчик растет, окруженный любовью и лаской своих родителей. Его воображение постоянно рисует ему необычные захватывающие приключения, которые они вместе с отцом с легкостью претворяют в жизнь. За это часто им попадает от строгой мамы. С таким папой ничего не страшно, малыш знает, что в любую трудную минуту он окажется рядом. Всегда поддержит и защитит. Но судьба всегда преподносит людям очередные испытания, проверяя их на прочность. В фильме Малыш маленький персонаж понял довольно рано, насколько может быть несправедлива жизнь. Начинается Вторая мировая война и его отец вынужден уйти на фронт. Мальчик прекрасно понимает, чем могут закончиться такие события. И главная его мечта, чтобы папа как можно скорее вернулся домой.

  • Мировая премьера: 24 апреля 2015


Перевод и озвучивание: Paul Bunyan

Качество видео: HDRip

Продолжительность: 01:46:48
Формат: AVI
Видео: XviD, 720x304 (2.35:1), 23.976 fps, 1435 kbps
Аудио: русский, любительский одноголосый закадровый, AC3 5.1, 48 kHz, 384 kbps

Код:

Общее
Полное имя : Little.Boy.2015.L1.HDRip.avi
Формат : AVI
Формат/Информация : Audio Video Interleave
Размер файла : 1,36 Гбайт
Продолжительность : 1 ч. 46 м.
Общий поток : 1828 Кбит/сек
Программа кодирования : VirtualDubMod 1.5.10.3 | www.virtualdub-fr.org || (build 2550/release)
Библиотека кодирования : VirtualDubMod build 2550/release

Видео
Идентификатор : 0
Формат : MPEG-4 Visual
Профиль формата : Advanced Simple@L5
Параметр BVOP формата : 2
Параметр QPel формата : Нет
Параметр GMC формата : Без точки перехода
Параметр матрицы формата : Default (H.263)
Режим смешивания : Сжатый битовый поток
Идентификатор кодека : XVID
Идентификатор кодека/Подсказка : XviD
Продолжительность : 1 ч. 46 м.
Битрейт : 1435 Кбит/сек
Ширина : 720 пикселей
Высота : 304 пикселя
Соотношение сторон : 2,35:1
Частота кадров : 23,976 кадра/сек
Цветовое пространство : YUV
Субдискретизация насыщенности : 4:2:0
Битовая глубина : 8 бит
Тип развёртки : Прогрессивная
Метод сжатия : С потерями
Бит/(Пиксели*Кадры) : 0.273
Размер потока : 1,07 Гбайт (78%)
Библиотека кодирования : XviD 66

Аудио
Идентификатор : 1
Формат : AC-3
Формат/Информация : Audio Coding 3
Расширение режима : CM (complete main)
Параметр Endianness формата : Big
Идентификатор кодека : 2000
Продолжительность : 1 ч. 46 м.
Вид битрейта : Постоянный
Битрейт : 384 Кбит/сек
Каналы : 6 каналов
Расположение каналов : Front: L C R, Side: L R, LFE
Частота : 48,0 КГц
Битовая глубина : 16 бит
Метод сжатия : С потерями
Размер потока : 293 Мбайт (21%)
Выравнивание : Разделение по промежуткам
Продолжительность промежутка : 42 мс. (1,00 видеокадр)
Время предзагрузки промежутка : 500 мс.
picpicpicpicpic
Для увеличения картинки щелкните мышкой по превью

Этот торрент недоступен для скачивания без регистрации, однако доступен по публичной magnet-ссылке (источники с публичных трекеров). Перед использованием ссылки прочтите, пожалуйста Пользовательское соглашение, а также как можно дольше оставайтесь на раздаче! Для того, чтобы скачать сам торрент-файл (который видит больше источников), а также для того, чтобы поблагодарить релизера, вам необходимо зарегистрироваться. Если регистрироваться лень - вы можете также попробовать скачать релиз по нашим партнерским ссылкам ниже.

[underverse.su].t57268.torrent
Трекер: Зарегистрирован   [ 19.08.2015 22:11 ]  

Статус: проверено (by makkol at 20.08.2015 14:17)
Поблагодарили: 1 человек
Тип торрента: публичный - доступные источники с открытых трекеров: 
Размер: 1,36 GB (занимает 0,31 DVDR, для записи нужно 1 болванка DVDR/RW)
 
 
Похожие темы
Форум Тема Автор Торрент Отв. Посл. сооб.
Зарубежное кино [DVDRip, Low-Res HDRip, и т.д.] Малыш / Little Boy (Алехандро Гомес Монтеверде) [2015 г., драма, комедия, военный, BDRip] MVO + Original + Subs makkol
11 | 0

0 | 348

7

05.03.2016 10:36

Зарубежное кино [DVDRip, Low-Res HDRip, и т.д.] Малыш / Little Boy (Алехандро Гомес Монтеверде / Alejandro Gomez Monteverde) [2015 г., драма, комедия, военный, ВDRip] MVO (FocusStudio) 90ytr90
91 | 3

0 | 365

15

05.03.2016 11:48

Зарубежное кино [HDDVDRip / BDRip / WEB-DL / HDTV 1080/720р] Малыш / Little Boy (Алехандро Гомес Монтеверде) [2015 г., драма, комедия, военный, BDRip 1080p] VO + Original + Subs (Eng) makkol
2 | 0

0 | 700

10

19.08.2015 22:24

Зарубежное кино [HDDVDRip / BDRip / WEB-DL / HDTV 1080/720р] Малыш / Little Boy (Алехандро Гомес Монтеверде) [2015 г., драма, комедия, военный, BDRip 720p] MVO + Original + Subs makkol
0 | 2

0 | 329

3

05.03.2016 10:52

Зарубежное кино [HDDVDRip / BDRip / WEB-DL / HDTV 1080/720р] Малыш / Little Boy (Алехандро Гомес Монтеверде / Alejandro Gomez Monteverde) [2015 г., драма, комедия, военный, BDRip 1080p] MVO (FocusStudio) + VO (Paul Bunyan) + Original (Eng) + Sub (Rus, Eng) 90ytr90
2 | 0

0 | 418

4

05.03.2016 14:33

Зарубежное кино [HDDVDRip / BDRip / WEB-DL / HDTV 1080/720р] Малыш / Little Boy (Алехандро Гомес Монтеверде / Alejandro Gomez Monteverde) [2015 г., драма, комедия, военный, BDRip 720p] MVO (FocusStudio) + VO (Paul Bunyan) + Original (Eng) + Sub (Rus, Eng) 90ytr90
17 | 0

0 | 461

1

08.03.2016 11:12


Яндекс.Метрика powered by Sphinx


В Н И М А Н И Е
Сайт не распространяет и не хранит электронные версии произведений, а лишь бесплатно и без коммерческой выгоды (не требуя взамен платы,
SMS и т.д.) предоставляет доступ к создаваемому пользователями каталогу ссылок на торрент-файлы, которые содержат только списки хеш-сумм.
Убедительная просьба с жалобами обращаться напрямую к пользователю, разместившему торрент файл.

Вверх