Loading...
Error

Зависимая / Зависимый / Addicted (Билле Вудрафф) [2014 г., триллер, драма, WEB-DLRip] VO

Статистика раздачи
Размер:  1,47 GB   |    Зарегистрирован:  1 год 3 месяца   |    Скачан:  27 раз

Полного источника не было: 3 месяца 9 дней

Сидов:  0  |  0 KB/s  ]   Личеров:  0  |  0 KB/s  ]

* - сиды/пиры с внешних источников

   
 
Автор Сообщение

makkol Пол:Муж

18-Авг-2015 22:11

Зависимая / Зависимый / Addicted


Год выпуска: 2014
Жанр: триллер, драма
Производство: США [Code Black Entertainment, Codeblack Films, Lionsgate]
Режиссер: Билле Вудрафф
В ролях: Борис Коджо, Брэндон Гонзалес, Камерон Миллс, Дэниэл О’Каллаган, Эмаяци Коринеальди, Гаррет Хайнс, Хантер Бурк, Джон Ньюберг, Катерина Грэхэм, Мария Хауэлл, Шэрон Лил, Таша Смит
Сюжет фильма:
Успешная галеристка Зои Рейнард рискует своей семьёй и успешной карьерой, когда вступает в роман с молодым талантливым художником, постепенно теряя контроль над своей жизнью.

  • Мировая премьера: 10 октября 2014


Качество видео: WEB-DLRip

Продолжительность: 01:47:50
Формат: AVI
Видео: XviD, 720x400 (16:9), 23.976 fps, 1552 kbps
Аудио: русский, любительский одноголосый закадровый (Lord32x), AC3 5.1, 48 kHz, 384 kbps

Код:

Общее
Полное имя                               : KinoRay.Addicted.2014.Unrated.WEB-DLRip.1500MB.Lord32x.Studio.avi
Формат                                   : AVI
Формат/Информация                        : Audio Video Interleave
Размер файла                             : 1,47 Гбайт
Продолжительность                        : 1 ч. 47 м.
Общий поток                              : 1945 Кбит/сек
Программа кодирования                    : VirtualDubMod 1.5.10.3 (build 2550/release)
Библиотека кодирования                   : VirtualDubMod build 2550/release

Видео
Идентификатор                            : 0
Формат                                   : MPEG-4 Visual
Профиль формата                          : Advanced Simple@L5
Параметр BVOP формата                    : 1
Параметр QPel формата                    : Нет
Параметр GMC формата                     : Без точки перехода
Параметр матрицы формата                 : Default (H.263)
Идентификатор кодека                     : XVID
Идентификатор кодека/Подсказка           : XviD
Продолжительность                        : 1 ч. 47 м.
Битрейт                                  : 1552 Кбит/сек
Ширина                                   : 720 пикселей
Высота                                   : 400 пикселей
Соотношение сторон                       : 16:9
Частота кадров                           : 23,976 кадра/сек
Цветовое пространство                    : YUV
Субдискретизация насыщенности            : 4:2:0
Битовая глубина                          : 8 бит
Тип развёртки                            : Прогрессивная
Метод сжатия                             : С потерями
Бит/(Пиксели*Кадры)                      : 0.225
Размер потока                            : 1,17 Гбайт (80%)
Библиотека кодирования                   : XviD 1.2.1 (UTC 2008-12-04)

Аудио
Идентификатор                            : 1
Формат                                   : AC-3
Формат/Информация                        : Audio Coding 3
Расширение режима                        : CM (complete main)
Параметр Endianness формата              : Big
Идентификатор кодека                     : 2000
Продолжительность                        : 1 ч. 47 м.
Вид битрейта                             : Постоянный
Битрейт                                  : 384 Кбит/сек
Каналы                                   : 6 каналов
Расположение каналов                     : Front: L C R, Side: L R, LFE
Частота                                  : 48,0 КГц
Метод сжатия                             : С потерями
Размер потока                            : 296 Мбайт (20%)
Выравнивание                             : Разделение по промежуткам
Продолжительность промежутка             : 42  мс. (1,00 видеокадр)
Время предзагрузки промежутка            : 500  мс.
Релиз:

picpicpicpicpic
Для увеличения картинки щелкните мышкой по превью

Этот торрент недоступен для скачивания без регистрации, однако доступен по публичной magnet-ссылке (источники с публичных трекеров). Перед использованием ссылки прочтите, пожалуйста Пользовательское соглашение, а также как можно дольше оставайтесь на раздаче! Для того, чтобы скачать сам торрент-файл (который видит больше источников), а также для того, чтобы поблагодарить релизера, вам необходимо зарегистрироваться. Если регистрироваться лень - вы можете также попробовать скачать релиз по нашим партнерским ссылкам ниже.

[underverse.su].t57258.torrent
Трекер: Зарегистрирован   [ 18.08.2015 22:11 ]  

Статус: проверено (by makkol at 19.08.2015 13:02)
Поблагодарили: 1 человек
Тип торрента: публичный - доступные источники с открытых трекеров: 
Размер: 1,47 GB (занимает 0,33 DVDR, для записи нужно 1 болванка DVDR/RW)
 
 
Похожие темы
Форум Тема Автор Торрент Отв. Посл. сооб.
Зарубежное кино [HDDVDRip / BDRip / WEB-DL / HDTV 1080/720р] Зависимая / Зависимый / Addicted (Билле Вудрафф) [2014 г., триллер, драма, WEB-DL 720p] VO + Original makkol
20 | 0

0 | 587

7

18.08.2015 22:20

Зарубежное кино [HDDVDRip / BDRip / WEB-DL / HDTV 1080/720р] Зависимая / Зависимый / Addicted (Билле Вудрафф) [2014 г., триллер, драма, WEB-DL 1080p] VO + Original makkol
6 | 0

0 | 697

8

19.08.2015 13:31


Яндекс.Метрика powered by Sphinx


В Н И М А Н И Е
Сайт не распространяет и не хранит электронные версии произведений, а лишь бесплатно и без коммерческой выгоды (не требуя взамен платы,
SMS и т.д.) предоставляет доступ к создаваемому пользователями каталогу ссылок на торрент-файлы, которые содержат только списки хеш-сумм.
Убедительная просьба с жалобами обращаться напрямую к пользователю, разместившему торрент файл.

Вверх