Loading...
Error

Ловля саргана в Черном море [2014 г., документальный, рыбалка, HDTVRip]

Статистика раздачи
Размер:  156 MB   |    Зарегистрирован:  1 год 3 месяца   |    Скачан:  5 раз

Полного источника не было: 3 месяца 29 дней

Сидов:  0  |  0 KB/s  ]   Личеров:  0  |  0 KB/s  ]

* - сиды/пиры с внешних источников

   
 
Автор Сообщение

ARI71 Пол:Муж

18-Авг-2015 09:21

Ловля саргана в Черном море


Год выпуска: 2014
Жанр: документальный, рыбалка
Страна: Россия
Режиссер: RTG Production Studios
Сюжет фильма:
Говорят, что в водах Черного моря прячутся существа, больше похожие на сказочных персонажей, чем на реально существующих. С одним из таких морских созданий - сарганом - довелось познакомиться Денису Головко. Диковинную рыбу, известную своим необычным видом, ритуальными танцами и костями зеленого цвета, ведущий RTG TV поймал в курортном городе Анапа.
Качество видео: HDTVRip

Продолжительность: 00:12:33
Формат: AVI
Видео: XviD, 720x400, 1532 kbps
Аудио: русский, не требуется, AC3 2.0, 192 kbps

Код:

Общее
Полное имя : D:\lovly_sargana_v_chernom_more.avi
Формат : AVI
Формат/Информация : Audio Video Interleave
Размер файла : 156 Мбайт
Продолжительность : 12 м.
Общий поток : 1735 Кбит/сек
Программа кодирования : VirtualDubMod 1.5.10.3 | www.virtualdub-fr.org || (build 2550/release)
Библиотека кодирования : VirtualDubMod build 2550/release

Видео
Идентификатор : 0
Формат : MPEG-4 Visual
Профиль формата : Advanced Simple@L5
Параметр BVOP формата : 1
Параметр QPel формата : Нет
Параметр GMC формата : Без точки перехода
Параметр матрицы формата : Default (H.263)
Идентификатор кодека : XVID
Идентификатор кодека/Подсказка : XviD
Продолжительность : 12 м.
Битрейт : 1533 Кбит/сек
Ширина : 720 пикселей
Высота : 400 пикселей
Соотношение сторон : 16:9
Частота кадров : 25,000 кадров/сек
Цветовое пространство : YUV
Субдискретизация насыщенности : 4:2:0
Битовая глубина : 8 бит
Тип развёртки : Прогрессивная
Метод сжатия : С потерями
Бит/(Пиксели*Кадры) : 0.213
Размер потока : 138 Мбайт (88%)
Библиотека кодирования : XviD 1.2.1 (UTC 2008-12-04)

Аудио
Идентификатор : 1
Формат : AC-3
Формат/Информация : Audio Coding 3
Расширение режима : CM (complete main)
Параметр Endianness формата : Big
Идентификатор кодека : 2000
Продолжительность : 12 м.
Вид битрейта : Постоянный
Битрейт : 192 Кбит/сек
Каналы : 2 канала
Расположение каналов : Front: L R
Частота : 48,0 КГц
Метод сжатия : С потерями
Размер потока : 17,2 Мбайт (11%)
Выравнивание : Разделение по промежуткам
Продолжительность промежутка : 40 мс. (1,00 видеокадр)
Время предзагрузки промежутка : 500 мс.
picpicpicpicpicpicpic
Для увеличения картинки щелкните мышкой по превью

Этот торрент недоступен для скачивания без регистрации, однако доступен по публичной magnet-ссылке (источники с публичных трекеров). Перед использованием ссылки прочтите, пожалуйста Пользовательское соглашение, а также как можно дольше оставайтесь на раздаче! Для того, чтобы скачать сам торрент-файл (который видит больше источников), а также для того, чтобы поблагодарить релизера, вам необходимо зарегистрироваться. Если регистрироваться лень - вы можете также попробовать скачать релиз по нашим партнерским ссылкам ниже.

[underverse.su].t57193.torrent
Трекер: Зарегистрирован   [ 18.08.2015 09:21 ]  

Статус: проверено (by makkol at 18.08.2015 13:49)
Поблагодарили: пока никто не поблагодарил...
Тип торрента: публичный - доступные источники с открытых трекеров: 
Размер: 156 MB (занимает 0,03 DVDR, для записи нужно 1 болванка DVDR/RW)
 
 

Яндекс.Метрика powered by Sphinx


В Н И М А Н И Е
Сайт не распространяет и не хранит электронные версии произведений, а лишь бесплатно и без коммерческой выгоды (не требуя взамен платы,
SMS и т.д.) предоставляет доступ к создаваемому пользователями каталогу ссылок на торрент-файлы, которые содержат только списки хеш-сумм.
Убедительная просьба с жалобами обращаться напрямую к пользователю, разместившему торрент файл.

Вверх