Loading...
Error

Мир природы. Из жизни крабов / BBC. The Natural World. Claws [2009 г., документальный, природа, фауна, SatRip] VO

Статистика раздачи
Размер:  472 MB   |    Зарегистрирован:  1 год 3 месяца   |    Скачан:  10 раз

Полного источника не было: 8 месяцев

Сидов:  0  |  0 KB/s  ]   Личеров:  0  |  0 KB/s  ]

* - сиды/пиры с внешних источников

   
 
Автор Сообщение

ARI71 Пол:Муж

18-Авг-2015 08:12

Мир природы. Из жизни крабов / BBC. The Natural World. Claws


Год выпуска: 2009
Жанр: документальный, природа, фауна
Страна: Великобритания
Режиссер: Стив Николлс
Сюжет фильма:
Большинство людей уверено, что крабов можно увидеть в море, в аквариуме и на своей тарелке...
Однако в вопросах выживания эти существа, вооруженные сильными клешнями и крепким панцирем, могут дать фору даже человеку. Ведь встретить крабов можно и на океаническом дне, и в бесплодной пустыне. Но что же делает этих членистоногих такими живучими?
Качество видео: SatRip

Продолжительность: 00:40:45
Формат: AVI
Видео: DivX, 720x540, 1480 kbps
Аудио: русский, одноголосый [профессиональный], MP3 2.0, 128 kbps

Код:

Общее
Полное имя : D:\iz_zhizni_krabov.avi
Формат : AVI
Формат/Информация : Audio Video Interleave
Размер файла : 472 Мбайт
Продолжительность : 40 м.
Общий поток : 1618 Кбит/сек
Библиотека кодирования : VirtualDub-MPEG2 build 24600/release

Видео
Идентификатор : 0
Формат : MPEG-4 Visual
Параметр BVOP формата : 1
Параметр QPel формата : Нет
Параметр GMC формата : Без точки перехода
Параметр матрицы формата : Default (H.263)
Режим смешивания : Сжатый битовый поток
Идентификатор кодека : DX50
Идентификатор кодека/Подсказка : DivX 5
Продолжительность : 40 м.
Битрейт : 1480 Кбит/сек
Ширина : 720 пикселей
Высота : 540 пикселей
Соотношение сторон : 4:3
Частота кадров : 25,000 кадров/сек
Цветовое пространство : YUV
Субдискретизация насыщенности : 4:2:0
Битовая глубина : 8 бит
Тип развёртки : Прогрессивная
Метод сжатия : С потерями
Бит/(Пиксели*Кадры) : 0.152
Размер потока : 432 Мбайт (91%)
Библиотека кодирования : DivX 6.8.5 (UTC 2009-08-20)

Аудио
Идентификатор : 1
Формат : MPEG Audio
Версия формата : Version 1
Профиль формата : Layer 3
Режим : Joint stereo
Расширение режима : MS Stereo
Идентификатор кодека : 55
Идентификатор кодека/Подсказка : MP3
Продолжительность : 40 м.
Вид битрейта : Постоянный
Битрейт : 128 Кбит/сек
Каналы : 2 канала
Частота : 48,0 КГц
Метод сжатия : С потерями
Размер потока : 37,3 Мбайт (8%)
Выравнивание : Разделение по промежуткам
Продолжительность промежутка : 40 мс. (1,00 видеокадр)
Время предзагрузки промежутка : 500 мс.
picpicpicpicpicpicpicpicpic
Для увеличения картинки щелкните мышкой по превью

Этот торрент недоступен для скачивания без регистрации, однако доступен по публичной magnet-ссылке (источники с публичных трекеров). Перед использованием ссылки прочтите, пожалуйста Пользовательское соглашение, а также как можно дольше оставайтесь на раздаче! Для того, чтобы скачать сам торрент-файл (который видит больше источников), а также для того, чтобы поблагодарить релизера, вам необходимо зарегистрироваться. Если регистрироваться лень - вы можете также попробовать скачать релиз по нашим партнерским ссылкам ниже.

[underverse.su].t57185.torrent
Трекер: Зарегистрирован   [ 18.08.2015 08:12 ]  

Статус: проверено (by makkol at 18.08.2015 13:46)
Поблагодарили: 3 человека
Тип торрента: публичный - доступные источники с открытых трекеров: 
Размер: 472 MB (занимает 0,11 DVDR, для записи нужно 1 болванка DVDR/RW)
 
 
Похожие темы
Форум Тема Автор Торрент Отв. Посл. сооб.
BBC Мир природы - Горы тропических дождей / Natural World - The Mountains of the Monsoon [2009 г., документальный, природа, флора, фауна, HDTVRip 720p] Dub ARI71
0 | 0

0 | 547

2

09.06.2016 20:02

BBC Мир природы - Горы тропических дождей / Natural World - The Mountains of the Monsoon [2009 г., документальный, природа, флора, фауна, HDTVRip] VO ARI71
1 | 0

0 | 389

2

23.06.2016 07:49

BBC Мир природы. Кукушка / The Natural World. Cuckoo (Тим Мартин) [2007 г., документальный, природа, фауна, птицы, SatRip] VO ARI71
1 | 0

0 | 487

1

28.06.2016 15:14

BBC Мир природы. Кукушка / The Natural World. Cuckoo (Тим Мартин) [2007 г., документальный, флора, фауна, HDTVRip 720p] Dub + Original (Eng) + Sub (Eng) ARI71
0 | 0

0 | 513

1

28.06.2016 16:12

BBC Мир природы. Секреты подземелий майя / Natural World. Secrets of the Maya Underworld (Тим Мартин) [2005 г., документальный, познавательный, HDTVRip] VO ARI71
15 | 1

0 | 597

5

29.06.2016 16:05


Яндекс.Метрика powered by Sphinx


В Н И М А Н И Е
Сайт не распространяет и не хранит электронные версии произведений, а лишь бесплатно и без коммерческой выгоды (не требуя взамен платы,
SMS и т.д.) предоставляет доступ к создаваемому пользователями каталогу ссылок на торрент-файлы, которые содержат только списки хеш-сумм.
Убедительная просьба с жалобами обращаться напрямую к пользователю, разместившему торрент файл.

Вверх