Loading...
Error

Полицейская тачка / Cop Car (Джон Уоттс) [2015 г., триллер, WEB-DLRip] VO

Статистика раздачи
Размер:  1,37 GB   |    Зарегистрирован:  1 год 3 месяца   |    Скачан:  36 раз

Полного источника не было: 27 дней

Сидов:  0  |  0 KB/s  ]   Личеров:  0  |  0 KB/s  ]

* - сиды/пиры с внешних источников

   
 
Автор Сообщение

makkol Пол:Муж

17-Авг-2015 22:20

Полицейская тачка / Cop Car


Год выпуска: 2015
Жанр: триллер
Производство: США [Itsy Bitsy Film]
Режиссер: Джон Уоттс
В ролях: Кевин Бэйкон, Джеймс Фридсон-Джексон, Хэйс Уэллфорд, Камрин Менхейм, Ши Уигхэм, Кэтлин Бентли, Джозеф Оливейра
Сюжет фильма:
Два 10-летних мальчишки находят заброшенный полицейский автомобиль и решают присвоить его себе. Обычная детская игра начинает приобретать пугающие черты после того, как шериф небольшого городка отправляется на поиски своей пропавшей машины.

  • Мировая премьера: 24 января 2015


Перевод и озвучивание: Paul Bunyan

Качество видео: WEB-DLRip

Продолжительность: 01:27:47
Формат: AVI
Видео: XviD, 720x304 (2.35:1), 23.976 fps, 1835 kbps
Аудио: русский, любительский одноголосый закадровый, AC3 5.1, 48 kHz, 384 kbps

Код:

Общее
Полное имя : Cop.Car.2015.L1.WEB-DLRip.1400MB.avi
Формат : AVI
Формат/Информация : Audio Video Interleave
Размер файла : 1,37 Гбайт
Продолжительность : 1 ч. 27 м.
Общий поток : 2229 Кбит/сек
Программа кодирования : VirtualDubMod 1.5.10.3 | www.virtualdub-fr.org || (build 2550/release)
Библиотека кодирования : VirtualDubMod build 2550/release

Видео
Идентификатор : 0
Формат : MPEG-4 Visual
Профиль формата : Advanced Simple@L5
Параметр BVOP формата : 2
Параметр QPel формата : Нет
Параметр GMC формата : Без точки перехода
Параметр матрицы формата : Default (MPEG)
Идентификатор кодека : XVID
Идентификатор кодека/Подсказка : XviD
Продолжительность : 1 ч. 27 м.
Битрейт : 1835 Кбит/сек
Ширина : 720 пикселей
Высота : 304 пикселя
Соотношение сторон : 2,35:1
Частота кадров : 23,976 кадра/сек
Цветовое пространство : YUV
Субдискретизация насыщенности : 4:2:0
Битовая глубина : 8 бит
Тип развёртки : Прогрессивная
Метод сжатия : С потерями
Бит/(Пиксели*Кадры) : 0.350
Размер потока : 1,13 Гбайт (82%)
Библиотека кодирования : XviD 1.2.1 (UTC 2008-12-04)

Аудио
Идентификатор : 1
Формат : AC-3
Формат/Информация : Audio Coding 3
Расширение режима : CM (complete main)
Параметр Endianness формата : Big
Идентификатор кодека : 2000
Продолжительность : 1 ч. 27 м.
Вид битрейта : Постоянный
Битрейт : 384 Кбит/сек
Каналы : 6 каналов
Расположение каналов : Front: L C R, Side: L R, LFE
Частота : 48,0 КГц
Битовая глубина : 16 бит
Метод сжатия : С потерями
Размер потока : 241 Мбайт (17%)
Выравнивание : Разделение по промежуткам
Продолжительность промежутка : 42 мс. (1,00 видеокадр)
Время предзагрузки промежутка : 500 мс.
picpicpicpicpic
Для увеличения картинки щелкните мышкой по превью

Этот торрент недоступен для скачивания без регистрации, однако доступен по публичной magnet-ссылке (источники с публичных трекеров). Перед использованием ссылки прочтите, пожалуйста Пользовательское соглашение, а также как можно дольше оставайтесь на раздаче! Для того, чтобы скачать сам торрент-файл (который видит больше источников), а также для того, чтобы поблагодарить релизера, вам необходимо зарегистрироваться. Если регистрироваться лень - вы можете также попробовать скачать релиз по нашим партнерским ссылкам ниже.

[underverse.su].t57177.torrent
Трекер: Зарегистрирован   [ 17.08.2015 22:20 ]  

Статус: проверено (by makkol at 18.08.2015 13:06)
Поблагодарили: 1 человек
Тип торрента: публичный - доступные источники с открытых трекеров: 
Размер: 1,37 GB (занимает 0,31 DVDR, для записи нужно 1 болванка DVDR/RW)
 
 
Похожие темы
Форум Тема Автор Торрент Отв. Посл. сооб.
Зарубежное кино [DVDRip, Low-Res HDRip, и т.д.] Полицейская история 2013 / Jing Cha Gu Shi 2013 (Дин Шэн) [2013 г., боевик, триллер, драма, криминал, BDRip] DVO 90ytr90
0 | 0

0 | 470

27

16.04.2014 06:03

Зарубежное кино [DVDRip, Low-Res HDRip, и т.д.] Полицейская история 2013 / Police Story 2013 / Jing cha gu shi 2013 (Дин Шэн / Ding Sheng) [2013 г., криминал, драма, триллер, боевик, BDRip-AVC] AVO (Визгунов) + Original + Sub (Eng) 90ytr90
0 | 0

0 | 1116

19

03.06.2014 10:02

Зарубежное кино [DVDRip, Low-Res HDRip, и т.д.] Полицейская история 2013 / Police story / Jing cha gu shi 2013 (Дин Шэн) [2013 г., Криминал, Драма, Боевик, BDRip-AVC] DVO (RUS, GREEN TEA) + 2-AVO (RUS, С. Визгунов / А. Дольский) + Original (CHN) Ведьмочка
3 | 0

0 | 654

12

27.08.2014 22:49

Зарубежное кино [DVDRip, Low-Res HDRip, и т.д.] Полицейская тачка / Cop Car (Джон Уоттс / Jon Watts) [2015 г., триллер, криминал, BDRip] AVO (Чадов) 90ytr90
59 | 0

0 | 473

7

26.01.2016 18:01

Зарубежное кино [DVDRip, Low-Res HDRip, и т.д.] Полицейская тачка / Cop Car (Джон Уоттс / Jon Watts) [2015 г., триллер, криминал, BDRip] AVO (Чадов) + Sub (Rus) 90ytr90
5 | 0

0 | 653

4

26.01.2016 18:07

Зарубежное кино [DVDRip, Low-Res HDRip, и т.д.] Полицейская тачка / Cop Car (Джон Уоттс / Jon Watts) [2015 г., триллер, криминал, BDRip] AVO (Чадов) + Original (Eng) 90ytr90
15 | 0

0 | 508

2

26.01.2016 18:12

Классика зарубежного кино HQ Полицейская академия 2: Их первое задание / Police Academy 2: Their First Assignment (Джерри Пэрис) [1985 г., комедия, криминал, HDRip] (Rus, Ukr, Eng) HQ Underverse HQ Underverse
0 | 0

0 | 1394

5

15.07.2012 02:07

Классика зарубежного кино HQ Полицейская академия / Police Academy (Хью Уилсон) [1984 г., комедия, криминал, HDRip] (Rus, Ukr, Eng) HQ Underverse HQ Underverse
0 | 0

0 | 1343

8

12.07.2012 17:00

Зарубежное кино [HDDVDRip / BDRip / WEB-DL / HDTV 1080/720р] Полицейская тачка / Cop Car (Джон Уоттс) [2015 г., триллер, WEB-DL 720p] VO + Original + Subs (Eng) makkol
9 | 1

0 | 510

11

17.08.2015 22:31

Зарубежное кино [HDDVDRip / BDRip / WEB-DL / HDTV 1080/720р] Полицейская тачка / Cop Car (Джон Уоттс) [2015 г., триллер, WEB-DL 1080p] VO + Original + Subs (Eng) makkol
73 | 1

0 | 577

20

17.08.2015 22:43


Яндекс.Метрика powered by Sphinx


В Н И М А Н И Е
Сайт не распространяет и не хранит электронные версии произведений, а лишь бесплатно и без коммерческой выгоды (не требуя взамен платы,
SMS и т.д.) предоставляет доступ к создаваемому пользователями каталогу ссылок на торрент-файлы, которые содержат только списки хеш-сумм.
Убедительная просьба с жалобами обращаться напрямую к пользователю, разместившему торрент файл.

Вверх