Loading...
Error

Спаситель / Redeemer (Эрнесто Диас Эспиноса) [2014 г., боевик, криминал, HDRip] VO

Статистика раздачи
Размер:  1,37 GB   |    Зарегистрирован:  1 год 3 месяца   |    Скачан:  25 раз

Полного источника не было: 1 день 21 час

Сидов:  0  |  0 KB/s  ]   Личеров:  0  |  0 KB/s  ]

* - сиды/пиры с внешних источников

   
 
Автор Сообщение

makkol Пол:Муж

17-Авг-2015 10:41

Спаситель / Redeemer


Год выпуска: 2014
Жанр: боевик, криминал
Производство: Чили , США [Moral Brothers Entertainment, XYZ Films]
Режиссер: Эрнесто Диас Эспиноса
В ролях: Ноа Сеган, Марко Сарор, Лорето Аварена, Маурисио Диокарес, Борис Смирнов, Отилио Кастро
Сюжет фильма:
Бывший наёмный убийца Никки Пардо заключил сделку с Богом. Теперь каждый его день будет начинаться с того, что он держит пистолет у своего виска и спускает курок. За эти дни Пардо ни разу не умер, и он расценивает это как знамение того, что ему предначертано продолжать охоту за людьми, на которых он раньше работал.

  • Мировая премьера: 19 сентября 2014


Перевод: Enigma
Озвучивание: Хихикающий доктор

Качество видео: HDRip

Продолжительность: 01:29:57
Формат: AVI
Видео: XviD, 720x400 (16:9), 23.976 fps, 1726 kbps
Аудио: русский, любительский одноголосый закадровый, AC3 5.1, 48 kHz, 448 kbps

Код:

Общее
Полное имя                               : Redeemer.2014.xixidok.HDRip1400.ExKinoRay.avi
Формат                                   : AVI
Формат/Информация                        : Audio Video Interleave
Размер файла                             : 1,37 Гбайт
Продолжительность                        : 1 ч. 29 м.
Общий поток                              : 2183 Кбит/сек
Программа кодирования                    : VirtualDubMod 1.5.10.2 (build 2540/release)
Библиотека кодирования                   : VirtualDubMod build 2540/release
Авторское право                          : ExKinoRay

Видео
Идентификатор                            : 0
Формат                                   : MPEG-4 Visual
Профиль формата                          : Advanced Simple@L5
Параметр BVOP формата                    : 1
Параметр QPel формата                    : Нет
Параметр GMC формата                     : Без точки перехода
Параметр матрицы формата                 : Выборочная
Идентификатор кодека                     : XVID
Идентификатор кодека/Подсказка           : XviD
Продолжительность                        : 1 ч. 29 м.
Битрейт                                  : 1726 Кбит/сек
Ширина                                   : 720 пикселей
Высота                                   : 400 пикселей
Соотношение сторон                       : 16:9
Частота кадров                           : 23,976 кадра/сек
Цветовое пространство                    : YUV
Субдискретизация насыщенности            : 4:2:0
Битовая глубина                          : 8 бит
Тип развёртки                            : Прогрессивная
Метод сжатия                             : С потерями
Бит/(Пиксели*Кадры)                      : 0.237
Размер потока                            : 1,08 Гбайт (79%)
Библиотека кодирования                   : XviD 73

Аудио
Идентификатор                            : 1
Формат                                   : AC-3
Формат/Информация                        : Audio Coding 3
Расширение режима                        : CM (complete main)
Параметр Endianness формата              : Big
Идентификатор кодека                     : 2000
Продолжительность                        : 1 ч. 29 м.
Вид битрейта                             : Постоянный
Битрейт                                  : 448 Кбит/сек
Каналы                                   : 6 каналов
Расположение каналов                     : Front: L C R, Side: L R, LFE
Частота                                  : 48,0 КГц
Метод сжатия                             : С потерями
Размер потока                            : 288 Мбайт (21%)
Выравнивание                             : Разделение по промежуткам
Заголовок                                : xixidok
Релиз группы:

picpicpicpicpic
Для увеличения картинки щелкните мышкой по превью

Этот торрент недоступен для скачивания без регистрации, однако доступен по публичной magnet-ссылке (источники с публичных трекеров). Перед использованием ссылки прочтите, пожалуйста Пользовательское соглашение, а также как можно дольше оставайтесь на раздаче! Для того, чтобы скачать сам торрент-файл (который видит больше источников), а также для того, чтобы поблагодарить релизера, вам необходимо зарегистрироваться. Если регистрироваться лень - вы можете также попробовать скачать релиз по нашим партнерским ссылкам ниже.

[underverse.su].t57167.torrent
Трекер: Зарегистрирован   [ 17.08.2015 10:41 ]  

Статус: проверено (by makkol at 17.08.2015 23:26)
Поблагодарили: пока никто не поблагодарил...
Тип торрента: публичный - доступные источники с открытых трекеров: 
Размер: 1,37 GB (занимает 0,31 DVDR, для записи нужно 1 болванка DVDR/RW)
 
 
Похожие темы
Форум Тема Автор Торрент Отв. Посл. сооб.
Зарубежное кино [DVDRip, Low-Res HDRip, и т.д.] Спаситель / Savior (Предраг Антониевич / Predrag Antonijevic) [1998, драма, военный, DVDRip] MVO + Original + Sub (Rus) 90ytr90
11 | 0

0 | 1282

9

01.12.2013 08:02

Зарубежное кино [DVDRip, Low-Res HDRip, и т.д.] Спаситель / Redeemer (Эрнесто Диас Эспиноса) [2014 г., боевик, криминал, HDRip-AVC] VO + Original + Subs (Eng) makkol
6 | 0

0 | 675

18

17.08.2015 10:54

Зарубежное кино [HDDVDRip / BDRip / WEB-DL / HDTV 1080/720р] Спаситель / Redeemer (Эрнесто Диас Эспиноса) [2014 г., боевик, криминал, BDRip 1080p] VO (AC3, DTS) + Original (Esp) + Eng + Subs (Eng) makkol
10 | 1

0 | 656

14

17.08.2015 11:08


Яндекс.Метрика powered by Sphinx


В Н И М А Н И Е
Сайт не распространяет и не хранит электронные версии произведений, а лишь бесплатно и без коммерческой выгоды (не требуя взамен платы,
SMS и т.д.) предоставляет доступ к создаваемому пользователями каталогу ссылок на торрент-файлы, которые содержат только списки хеш-сумм.
Убедительная просьба с жалобами обращаться напрямую к пользователю, разместившему торрент файл.

Вверх