Loading...
Error

Астероид против Земли / Asteroid vs. Earth (Кристофер Рэй) [2014 г., фантастика, боевик, триллер, приключения, BDRip] VO

Статистика раздачи
Размер:  1,31 GB   |    Зарегистрирован:  1 год 3 месяца   |    Скачан:  32 раза

Полного источника не было: 1 месяц 9 дней

Сидов:  0  |  0 KB/s  ]   Личеров:  0  |  0 KB/s  ]

* - сиды/пиры с внешних источников

   
 
Автор Сообщение

makkol Пол:Муж

16-Авг-2015 22:37

Астероид против Земли / Asteroid vs. Earth


Год выпуска: 2014
Жанр: фантастика, боевик, триллер, приключения
Производство: США [Global Asylum, Tiki Terrors]
Режиссер: Кристофер Рэй
В ролях: Тиа Каррере, Джейсон Брукс, Тим Расс, Дэрин Купер, Роберт Р. Шафер, Крэйг Блэр, Роберт Дави, Джералд Уэбб, Мелвин Грегг, Тереза Джун Тао
Сюжет фильма:
Земле угрожает массивный метеоритный дождь. Человечество на грани уничтожения. Величайшие умы планеты осуществляют рискованный план, который, возможно, поможет избежать катастрофы...

  • Мировая премьера: 29 апреля 2014


Перевод: anton1
Озвучивание: Павел Морозов aka PashaUp

Качество видео: BDRip

Продолжительность: 01:31:18
Формат: AVI
Видео: XviD, 720x384 (1.85:1), 23.976 fps, 1599 kbps
Аудио: русский, любительский одноголосый закадровый, AC3 5.1, 48 kHz, 448 kbps

Код:

Format : AVI
Format/Info : Audio Video Interleave
File size : 1.31 GiB
Duration : 1h 31mn
Overall bit rate : 2 056 Kbps
Writing application : VirtualDubMod 1.5.10.2 (build 2540/release)
Writing library : VirtualDubMod build 2540/release

Video
ID : 0
Format : MPEG-4 Visual
Format profile : Advanced Simple@L5
Format settings, BVOP : Yes
Format settings, QPel : Yes
Format settings, GMC : No warppoints
Format settings, Matrix : Default (MPEG)
Codec ID : XVID
Codec ID/Hint : XviD
Duration : 1h 31mn
Bit rate : 1 599 Kbps
Width : 720 pixels
Height : 384 pixels
Display aspect ratio : 1.875
Frame rate : 23.976 fps
Resolution : 8 bits
Colorimetry : 4:2:0
Scan type : Progressive
Bits/(Pixel*Frame) : 0.241
Stream size : 1.02 GiB (78%)
Writing library : XviD 1.2.1 (UTC 2008-12-04)

Audio
ID : 1
Format : AC-3
Format/Info : Audio Coding 3
Codec ID : 2000
Duration : 1h 31mn
Bit rate mode : Constant
Bit rate : 448 Kbps
Channel(s) : 6 channels
Channel positions : Front: L C R, Surround: L R, LFE
Sampling rate : 48.0 KHz
Stream size : 293 MiB (22%)
Alignment : Split accross interleaves
Interleave, duration : 42 ms (1.00 video frame)
Interleave, preload duration : 500 ms
picpicpicpicpic
Для увеличения картинки щелкните мышкой по превью

Этот торрент недоступен для скачивания без регистрации, однако доступен по публичной magnet-ссылке (источники с публичных трекеров). Перед использованием ссылки прочтите, пожалуйста Пользовательское соглашение, а также как можно дольше оставайтесь на раздаче! Для того, чтобы скачать сам торрент-файл (который видит больше источников), а также для того, чтобы поблагодарить релизера, вам необходимо зарегистрироваться. Если регистрироваться лень - вы можете также попробовать скачать релиз по нашим партнерским ссылкам ниже.

[underverse.su].t57143.torrent
Трекер: Зарегистрирован   [ 16.08.2015 22:37 ]  

Статус: проверено (by makkol at 17.08.2015 09:58)
Поблагодарили: 2 человека
Тип торрента: публичный - доступные источники с открытых трекеров: 
Размер: 1,31 GB (занимает 0,3 DVDR, для записи нужно 1 болванка DVDR/RW)
 
 
Похожие темы
Форум Тема Автор Торрент Отв. Посл. сооб.
Зарубежное кино [HDDVDRip / BDRip / WEB-DL / HDTV 1080/720р] Астероид против Земли / Asteroid vs. Earth (Кристофер Рэй) [2014 г., фантастика, боевик, триллер, приключения, BDRip 1080p] VO + Original + Subs (Eng) makkol
1 | 0

0 | 1438

15

16.08.2015 23:17


Яндекс.Метрика powered by Sphinx


В Н И М А Н И Е
Сайт не распространяет и не хранит электронные версии произведений, а лишь бесплатно и без коммерческой выгоды (не требуя взамен платы,
SMS и т.д.) предоставляет доступ к создаваемому пользователями каталогу ссылок на торрент-файлы, которые содержат только списки хеш-сумм.
Убедительная просьба с жалобами обращаться напрямую к пользователю, разместившему торрент файл.

Вверх