Loading...
Error

Алоха / Aloha (Кэмерон Кроу) [2015 г., драма, мелодрама, комедия, HDRip] VO

Статистика раздачи
Размер:  1,46 GB   |    Зарегистрирован:  1 год 3 месяца   |    Скачан:  51 раз

Полного источника не было: 16 часов

Сидов:  0  |  0 KB/s  ]   Личеров:  0  |  0 KB/s  ]

* - сиды/пиры с внешних источников

   
 
Автор Сообщение

makkol Пол:Муж

16-Авг-2015 13:48

Алоха / Aloha


Год выпуска: 2015
Жанр: драма, мелодрама, комедия
Производство: США [Columbia Pictures, LStar Capital, RatPac Entertainment, Regency Enterprises]
Режиссер: Кэмерон Кроу
В ролях: Брэдли Купер, Эмма Стоун, Рэйчел МакАдамс, Билл Мюррэй, Джон Красински, Дэнни МакБрайд, Алек Болдуин, Билл Кэмп, Джейден Либерер, Даниэль Роуз Расселл, Майкл Чернус, Эди Гатеги, Элизабет Марвел, Ивана Миличевич, Фахим Фазли, Семер-Аб Этмет Йоханнес, Лес Брэмлет, Дон Д. Дэвис, Джарретт Пиеске, Стивен М. Мёрджа
Сюжет фильма:
37-летний дискредитированный американский консультант по оружию Брайн Джилкрест не нравится практически всем окружающим его людям. Его единственный друг — техник по имени Джереми — супер умный и хорошо осведомленный компьютерщик. В ответ на агрессию со стороны Китая Джилкреста отправляют на бездействующую военную базу на Гавайях, чтобы оттуда он контролировал запуск современного спутника-шпиона. Это задание сведет его с девушкой по имени Трейси…

  • Мировая премьера: 27 мая 2015


Качество видео: HDRip

Продолжительность: 01:44:38
Формат: AVI
Видео: XviD, 720x384 (1.85:1), 23.976 fps, 1861 kbps
Аудио: русский, любительский одноголосый закадровый (А.Глинский), AC3 2.0, 44.1 kHz, 128 kbps
Примечание: Фильм перевёден полностью

Код:

Общее
Полное имя                               : Aloha.2015.HDRip.avi
Формат                                   : AVI
Формат/Информация                        : Audio Video Interleave
Размер файла                             : 1,46 Гбайт
Продолжительность                        : 1 ч. 44 м.
Общий поток                              : 1998 Кбит/сек
Название фильма                          : Aloha.2015.HDRip
Жанр                                     : Comedy/Drama
Программа кодирования                    : VirtualDubMod 1.5.4.1 (build 2066/release)
Формат оригинала/Имя                     : Movie

Видео
Идентификатор                            : 0
Формат                                   : MPEG-4 Visual
Профиль формата                          : Advanced Simple@L5
Параметр BVOP формата                    : 2
Параметр QPel формата                    : Нет
Параметр GMC формата                     : Без точки перехода
Параметр матрицы формата                 : Default (MPEG)
Идентификатор кодека                     : XVID
Идентификатор кодека/Подсказка           : XviD
Продолжительность                        : 1 ч. 44 м.
Битрейт                                  : 1861 Кбит/сек
Ширина                                   : 720 пикселей
Высота                                   : 384 пикселя
Соотношение сторон                       : 1,85:1
Частота кадров                           : 23,976 кадра/сек
Цветовое пространство                    : YUV
Субдискретизация насыщенности            : 4:2:0
Битовая глубина                          : 8 бит
Тип развёртки                            : Прогрессивная
Метод сжатия                             : С потерями
Бит/(Пиксели*Кадры)                      : 0.281
Размер потока                            : 1,36 Гбайт (93%)
Библиотека кодирования                   : XviD 1.2.1 (UTC 2008-12-04)

Аудио
Идентификатор                            : 1
Формат                                   : AC-3
Формат/Информация                        : Audio Coding 3
Расширение режима                        : CM (complete main)
Параметр Endianness формата              : Big
Идентификатор кодека                     : 2000
Продолжительность                        : 1 ч. 44 м.
Вид битрейта                             : Постоянный
Битрейт                                  : 128 Кбит/сек
Каналы                                   : 2 канала
Расположение каналов                     : Front: L R
Частота                                  : 44,1 КГц
Метод сжатия                             : С потерями
Размер потока                            : 95,6 Мбайт (6%)
Выравнивание                             : Разделение по промежуткам
Продолжительность промежутка             : 42  мс. (1,00 видеокадр)
Время предзагрузки промежутка            : 500  мс.
Релиз группы:

picpicpicpicpic
Для увеличения картинки щелкните мышкой по превью

Этот торрент недоступен для скачивания без регистрации, однако доступен по публичной magnet-ссылке (источники с публичных трекеров). Перед использованием ссылки прочтите, пожалуйста Пользовательское соглашение, а также как можно дольше оставайтесь на раздаче! Для того, чтобы скачать сам торрент-файл (который видит больше источников), а также для того, чтобы поблагодарить релизера, вам необходимо зарегистрироваться. Если регистрироваться лень - вы можете также попробовать скачать релиз по нашим партнерским ссылкам ниже.

[underverse.su].t57135.torrent
Трекер: Зарегистрирован   [ 16.08.2015 13:48 ]  

Статус: проверено (by makkol at 16.08.2015 23:41)
Поблагодарили: 2 человека
Тип торрента: публичный - доступные источники с открытых трекеров: 
Размер: 1,46 GB (занимает 0,33 DVDR, для записи нужно 1 болванка DVDR/RW)
 
 
Похожие темы
Форум Тема Автор Торрент Отв. Посл. сооб.
T Зарубежное кино [DVDRip, Low-Res HDRip, и т.д.] Алоха / Aloha (Кэмерон Кроу) [2015 г., драма, мелодрама, комедия, HDRip] Dub makkol
691 | 10

0 | 469

49

21.09.2015 09:41

Зарубежное кино [HDDVDRip / BDRip / WEB-DL / HDTV 1080/720р] Алоха / Aloha (Кэмерон Кроу) [2015 г., драма, мелодрама, комедия, BDRip 720p] VO + Original makkol
26 | 1

0 | 520

15

16.08.2015 14:10

Зарубежное кино [HDDVDRip / BDRip / WEB-DL / HDTV 1080/720р] Алоха / Aloha (Кэмерон Кроу) [2015 г., драма, мелодрама, комедия, BDRip 1080p] VO + Original makkol
7 | 0

0 | 607

14

16.08.2015 14:29

T Зарубежное кино [HDDVDRip / BDRip / WEB-DL / HDTV 1080/720р] Алоха / Aloha (Кэмерон Кроу) [2015 г., драма, мелодрама, комедия, BDRip 720p] Dub (Rus) + Dub (Ukr) + Original + Subs makkol
4 | 0

0 | 510

9

21.09.2015 09:57

T Зарубежное кино [HDDVDRip / BDRip / WEB-DL / HDTV 1080/720р] Алоха / Aloha (Кэмерон Кроу) [2015 г., драма, мелодрама, комедия, BDRip 1080p] Dub (Rus) + Dub (Ukr) + Original + Subs makkol
3 | 0

0 | 572

10

21.09.2015 10:07


Яндекс.Метрика powered by Sphinx


В Н И М А Н И Е
Сайт не распространяет и не хранит электронные версии произведений, а лишь бесплатно и без коммерческой выгоды (не требуя взамен платы,
SMS и т.д.) предоставляет доступ к создаваемому пользователями каталогу ссылок на торрент-файлы, которые содержат только списки хеш-сумм.
Убедительная просьба с жалобами обращаться напрямую к пользователю, разместившему торрент файл.

Вверх