Loading...
Error

Джентльмен грабитель / Electric Slide (Тристан Паттерсон) [2014 г., боевик, триллер, драма, криминал, биография, WEB-DLRip] Dub (Line)

Статистика раздачи
Размер:  1,37 GB   |    Зарегистрирован:  1 год 3 месяца   |    Скачан:  41 раз

Полного источника не было: 20 дней

Сидов:  0  |  0 KB/s  ]   Личеров:  0  |  0 KB/s  ]

* - сиды/пиры с внешних источников

   
 
Автор Сообщение

makkol Пол:Муж

15-Авг-2015 22:24

Джентльмен грабитель / Electric Slide


Год выпуска: 2014
Жанр: боевик, триллер, драма, криминал, биография
Производство: США [Di Bonaventura Pictures, Killer Films, Media House Capital]
Режиссер: Тристан Паттерсон
В ролях: Джим Стёрджесс, Изабель Лукас, Хлоя Севиньи, Патриция Аркетт, Кристофер Ламберт, Винесса Шоу, Констанс Ву, Мэгалин Эчиканвоке, Риз Койро, Кортни Палм
Сюжет фильма:
Речь в фильме пойдет об Эдди Додсоне, владельце мебельного магазина на Мелроуз Авеню в Лос-Анджелесе. Он был знаком со многими знаменитостями, вёл праздный образ жизни — веселился и устраивал вечеринки. Но однажды он влюбился, и чтобы произвести впечатление на любимую девушку, решил ограбить банк.

  • Мировая премьера: 22 апреля 2014
  • Российская премьера: 7 мая 2015


Качество видео: WEB-DLRip

Продолжительность: 01:31:01
Формат: AVI
Видео: XviD, 720x304 (2.35:1), 25.000 fps, 1948 kbps
Аудио: русский, дублированный (чистый звук), AC3 2.0, 48 kHz, 192 kbps

Код:

Общее
Полное имя                               : Dzhenteljmen.grabitelj.2014.D.WEBDLRip.avi
Формат                                   : AVI
Формат/Информация                        : Audio Video Interleave
Размер файла                             : 1,37 Гбайт
Продолжительность                        : 1 ч. 31 м.
Общий поток                              : 2140 Кбит/сек
Программа кодирования                    : VirtualDubMod 1.5.10.2 (build 2540/release)
Библиотека кодирования                   : VirtualDubMod build 2540/release

Видео
Идентификатор                            : 0
Формат                                   : MPEG-4 Visual
Профиль формата                          : Advanced Simple@L5
Параметр BVOP формата                    : 2
Параметр QPel формата                    : Нет
Параметр GMC формата                     : Без точки перехода
Параметр матрицы формата                 : Default (MPEG)
Идентификатор кодека                     : XVID
Идентификатор кодека/Подсказка           : XviD
Продолжительность                        : 1 ч. 31 м.
Битрейт                                  : 1948 Кбит/сек
Ширина                                   : 720 пикселей
Высота                                   : 304 пикселя
Соотношение сторон                       : 2,35:1
Частота кадров                           : 25,000 кадров/сек
Цветовое пространство                    : YUV
Субдискретизация насыщенности            : 4:2:0
Битовая глубина                          : 8 бит
Тип развёртки                            : Прогрессивная
Метод сжатия                             : С потерями
Бит/(Пиксели*Кадры)                      : 0.341
Размер потока                            : 1,22 Гбайт (91%)
Библиотека кодирования                   : XviD 1.2.1 (UTC 2008-12-04)

Аудио
Идентификатор                            : 1
Формат                                   : AC-3
Формат/Информация                        : Audio Coding 3
Расширение режима                        : CM (complete main)
Параметр Endianness формата              : Big
Идентификатор кодека                     : 2000
Продолжительность                        : 1 ч. 31 м.
Вид битрейта                             : Постоянный
Битрейт                                  : 192 Кбит/сек
Каналы                                   : 2 канала
Расположение каналов                     : Front: L R
Частота                                  : 48,0 КГц
Метод сжатия                             : С потерями
Размер потока                            : 125 Мбайт (9%)
Выравнивание                             : Разделение по промежуткам
picpicpicpicpic
Для увеличения картинки щелкните мышкой по превью

Этот торрент недоступен для скачивания без регистрации, однако доступен по публичной magnet-ссылке (источники с публичных трекеров). Перед использованием ссылки прочтите, пожалуйста Пользовательское соглашение, а также как можно дольше оставайтесь на раздаче! Для того, чтобы скачать сам торрент-файл (который видит больше источников), а также для того, чтобы поблагодарить релизера, вам необходимо зарегистрироваться. Если регистрироваться лень - вы можете также попробовать скачать релиз по нашим партнерским ссылкам ниже.

[underverse.su].t57126.torrent
Трекер: Зарегистрирован   [ 15.08.2015 22:24 ]  

Статус: T временная (by makkol at 16.08.2015 09:39)
Поблагодарили: пока никто не поблагодарил...
Тип торрента: публичный - доступные источники с открытых трекеров: 
Размер: 1,37 GB (занимает 0,31 DVDR, для записи нужно 1 болванка DVDR/RW)
 
 
Похожие темы
Форум Тема Автор Торрент Отв. Посл. сооб.
Наше кино [DVDRip, Low-Res HDRip, и т.д.] Джентльмены, удачи! (Александр Баранов, Дмитрий Киселёв) [2012 г., комедия, криминал, DVDRip] eXtatik
35 | 5

7 | 2745

392

26.03.2013 05:54

Наше кино HQ Джентльмены удачи (Александр Серый) [1971 г., драма, комедия, криминал, детектив, HDRip] HQ Underverse HQ Underverse
0 | 0

0 | 1315

19

16.03.2012 10:20

T Зарубежное кино [HDDVDRip / BDRip / WEB-DL / HDTV 1080/720р] Джентльмен грабитель / Electric Slide (Тристан Паттерсон) [2014 г., боевик, триллер, драма, криминал, биография, WEB-DL 720p] Dub (Line) + Original makkol
2 | 0

1 | 712

11

16.08.2015 16:45

Наше кино [DVD / HDDVD / BD / Remux] Джентльмены, удачи! (Александр Баранов, Дмитрий Киселёв) [2012, комедия, криминал, Blu-ray Disc 1080p] uzi2009
1 | 0

1 | 1148

5

25.10.2016 07:40

Наше кино [HDDVDRip / BDRip / WEB-DL / HDTV 1080/720р] Джентльмены удачи (Александр Серый) [1971 г., комедия, драма, приключения, криминал, детектив, BDRip 1080p] makkol
0 | 0

0 | 644

10

10.05.2016 22:32


Яндекс.Метрика powered by Sphinx


В Н И М А Н И Е
Сайт не распространяет и не хранит электронные версии произведений, а лишь бесплатно и без коммерческой выгоды (не требуя взамен платы,
SMS и т.д.) предоставляет доступ к создаваемому пользователями каталогу ссылок на торрент-файлы, которые содержат только списки хеш-сумм.
Убедительная просьба с жалобами обращаться напрямую к пользователю, разместившему торрент файл.

Вверх