Loading...
Error

Американское преступление / American crime / Сезон 1 (1-11 серии из 11) (Джон Ридли, Ханель М. Кулпеппер, Николь Кэссел) [2015 г., драма, WEB-DLRip] MVO + Original

Статистика раздачи
Размер:  6,45 GB   |    Зарегистрирован:  1 год 3 месяца   |    Скачан:  3 раза

Полного источника не было: 16 дней

Сидов:  0  |  0 KB/s  ]   Личеров:  0  |  0 KB/s  ]

* - сиды/пиры с внешних источников

   
 
Автор Сообщение

older Пол:Муж

15-Авг-2015 10:11

Американское преступление / American crime / Сезон 1 (1-11 серии)


Год выпуска: 2015
Жанр: драма
Страна: США
Режиссер: Джон Ридли, Ханель М. Кулпеппер, Николь Кэссел
В ролях: Фелисити Хаффман, Тимоти Хаттон, У. Эрл Браун, Ричард Кабрал, Кэйтлин Джерард, Бенито Мартинес, Элвис Ноласко, Пенелопа Энн Миллер, Джонни Ортис
Сюжет фильма:
События разворачиваются в небольшом калифорнийском городке. В результате жестокого нападения на почве расовой ненависти убит бывший военнослужащий, а его жена впадает в кому…

Качество видео: WEB-DLRip

Продолжительность: ~ 00:43:00
Формат: AVI
Видео: XviD, 720х400, 1525 kbps
Аудио #1: русский, многоголосый закадровый [профессиональный] - Amedia, AC3 2.0, 192 kbps
Аудио #2: английский, оригинал, AC3 2.0, 192 kbps
Субтитры: тип: внешние, английский, формат: SRT

Код:

Общее
Полное имя                               :\American Crime (01)\American.Crime.S01E01.XviD.Amedia.[qqss44].avi
Формат                                   : AVI
Формат/Информация                        : Audio Video Interleave
Размер файла                             : 599 Мбайт
Продолжительность                        : 43 м.
Общий поток                              : 1923 Кбит/сек
Программа кодирования                    : VirtualDubMod 1.5.10.3 | www.virtualdub-fr.org || (build 2550/release)
Библиотека кодирования                   : VirtualDubMod build 2550/release

Видео
Идентификатор                            : 0
Формат                                   : MPEG-4 Visual
Профиль формата                          : Advanced Simple@L5
Параметр BVOP формата                    : 2
Параметр QPel формата                    : Нет
Параметр GMC формата                     : Без точки перехода
Параметр матрицы формата                 : Default (MPEG)
Идентификатор кодека                     : XVID
Идентификатор кодека/Подсказка           : XviD
Продолжительность                        : 43 м.
Битрейт                                  : 1525 Кбит/сек
Ширина                                   : 720 пикселей
Высота                                   : 400 пикселей
Соотношение сторон                       : 16:9
Частота кадров                           : 23,976 кадра/сек
Цветовое пространство                    : YUV
Субдискретизация насыщенности            : 4:2:0
Битовая глубина                          : 8 бит
Тип развёртки                            : Прогрессивная
Метод сжатия                             : С потерями
Бит/(Пиксели*Кадры)                      : 0.221
Размер потока                            : 475 Мбайт (79%)
Библиотека кодирования                   : XviD 73

Аудио #1
Идентификатор                            : 1
Формат                                   : AC-3
Формат/Информация                        : Audio Coding 3
Расширение режима                        : CM (complete main)
Параметр Endianness формата              : Big
Идентификатор кодека                     : 2000
Продолжительность                        : 43 м.
Вид битрейта                             : Постоянный
Битрейт                                  : 192 Кбит/сек
Каналы                                   : 2 канала
Расположение каналов                     : Front: L R
Частота                                  : 48,0 КГц
Битовая глубина                          : 16 бит
Метод сжатия                             : С потерями
Размер потока                            : 59,8 Мбайт (10%)
Выравнивание                             : Разделение по промежуткам
Продолжительность промежутка             : 42  мс. (1,00 видеокадр)
Время предзагрузки промежутка            : 500  мс.

Аудио #2
Идентификатор                            : 2
Формат                                   : AC-3
Формат/Информация                        : Audio Coding 3
Расширение режима                        : CM (complete main)
Параметр Endianness формата              : Big
Идентификатор кодека                     : 2000
Продолжительность                        : 43 м.
Вид битрейта                             : Постоянный
Битрейт                                  : 192 Кбит/сек
Каналы                                   : 2 канала
Расположение каналов                     : Front: L R
Частота                                  : 48,0 КГц
Битовая глубина                          : 16 бит
Метод сжатия                             : С потерями
Размер потока                            : 59,8 Мбайт (10%)
Выравнивание                             : Разделение по промежуткам
Продолжительность промежутка             : 42  мс. (1,00 видеокадр)
Время предзагрузки промежутка            : 500  мс.

Семпл:
Рип, работа со звуком - qqss44
Перевод и озвучание: студия Кириллица по заказу Amedia
picpicpicpicpic
Для увеличения картинки щелкните мышкой по превью

Этот торрент недоступен для скачивания без регистрации, однако доступен по публичной magnet-ссылке (источники с публичных трекеров). Перед использованием ссылки прочтите, пожалуйста Пользовательское соглашение, а также как можно дольше оставайтесь на раздаче! Для того, чтобы скачать сам торрент-файл (который видит больше источников), а также для того, чтобы поблагодарить релизера, вам необходимо зарегистрироваться. Если регистрироваться лень - вы можете также попробовать скачать релиз по нашим партнерским ссылкам ниже.

[underverse.su].t57109.torrent
Трекер: Зарегистрирован   [ 15.08.2015 10:11 ]  

Статус: проверено (by makkol at 15.08.2015 11:14)
Поблагодарили: 1 человек
Тип торрента: публичный - доступные источники с открытых трекеров: 
Размер: 6,45 GB (занимает 1,47 DVDR, для записи нужно 2 болванки DVDR/RW)
 
 
Похожие темы
Форум Тема Автор Торрент Отв. Посл. сооб.
Зарубежное кино [DVDRip, Low-Res HDRip, и т.д.] Американская история Х / American History X (Тони Кей / Tony Kaye) [1998 г., драма, криминал, BDRip-AVC] MVO (West Video) + Original (Eng) + Sub (Rus, Eng) M-i-i-i-ke
22 | 1

2 | 1549

2

22.02.2016 19:48

Зарубежное кино [DVDRip, Low-Res HDRip, и т.д.] Американский бизон / American Buffalo (Майкл Корренте / Michael Corrente) [1996 г., драма, экранизация, HDRip] DVO + AVO (П.Карцев) 90ytr90
6 | 0

0 | 813

1

26.11.2016 08:10

Зарубежное кино [DVDRip, Low-Res HDRip, и т.д.] Американский пирог: Все в сборе / American Reunion (Джон Харвитц, Хейден Шлоссберг) [2012 г., комедия, BDRip] WeaSel
1 | 0

0 | 742

24

08.08.2012 19:57

Зарубежное кино [DVDRip, Low-Res HDRip, и т.д.] Американский боевой корабль / American Warships (Тандер Левин) [2012 г., боевик, HDRip] MVO [SyFy] + Original RG NewCinema
0 | 0

0 | 1106

47

21.10.2012 20:15

Зарубежное кино [DVDRip, Low-Res HDRip, и т.д.] Американская Мэри / American Mary (Джен Соска, Сильвия Соска) [2012 г., ужасы, триллер, DVDRip] DVO [den904, DeadSno] RG NewCinema
7 | 0

3 | 1531

33

31.01.2013 12:21

Зарубежное кино [DVDRip, Low-Res HDRip, и т.д.] Американская Мэри / American Mary (Джен Соска / Jen Soska, Сильвия Соска / Sylvia Soska) [2012 г., ужасы, триллер, HDRip] DVO Gaarochi
7 | 0

0 | 986

6

22.03.2013 15:58

Зарубежное кино [DVDRip, Low-Res HDRip, и т.д.] Американская карусель / Roundabout American (Борис Уэкслер) [2012 г., комедия, SATRip] DVO Паукан
1 | 0

0 | 1581

13

14.05.2013 13:10

Зарубежное кино [DVDRip, Low-Res HDRip, и т.д.] Американская карусель / Roundabout American (Борис Уэкслер) [2012 г., комедия, HDTVRip] MVO RG NewCinema
8 | 0

0 | 1372

22

23.05.2013 11:21

Зарубежное кино [DVDRip, Low-Res HDRip, и т.д.] Американская Мэри / American Mary (Джен Соска, Сильвия Соска) [2012 г., Ужасы, BDRip-AVC] DVO (RUS, Влад & Снежинка) + Original (ENG) + Subs (RUS, ENG) Ведьмочка
13 | 0

0 | 614

3

23.08.2014 17:19

Зарубежное кино [DVDRip, Low-Res HDRip, и т.д.] Американская Мэри / American Mary (Джен Соска, Сильвия Соска) [2012 г., Ужасы, BDRip-AVC] DVO (RUS, Влад & Снежинка) + Original (ENG) + Subs (RUS, ENG) Ведьмочка
9 | 0

0 | 644

1

23.08.2014 17:22


Яндекс.Метрика powered by Sphinx


В Н И М А Н И Е
Сайт не распространяет и не хранит электронные версии произведений, а лишь бесплатно и без коммерческой выгоды (не требуя взамен платы,
SMS и т.д.) предоставляет доступ к создаваемому пользователями каталогу ссылок на торрент-файлы, которые содержат только списки хеш-сумм.
Убедительная просьба с жалобами обращаться напрямую к пользователю, разместившему торрент файл.

Вверх