Loading...
Error

Восход тёмной луны / Оборотень / Dark Moon Rising (Джастин Прайс) [2015 г., фэнтези, WEB-DLRip] VO

Статистика раздачи
Размер:  1,23 GB   |    Зарегистрирован:  1 год 3 месяца   |    Скачан:  14 раз

Полного источника не было: 9 месяцев

Сидов:  0  |  0 KB/s  ]   Личеров:  0  |  0 KB/s  ]

* - сиды/пиры с внешних источников

   
 
Автор Сообщение

makkol Пол:Муж

14-Авг-2015 14:40

Восход тёмной луны / Оборотень / Dark Moon Rising


Год выпуска: 2015
Жанр: фэнтези
Производство: США [Pikchure Zero Entertainment]
Режиссер: Джастин Прайс
В ролях: Стаси Эспер, Эрик Робертс, Линда Ку, Билли Блэнкс, Джастин Прайс, Камерон Уайт, Лиза Мэй, Мэттью Симмонс, Джаред Оллман, Эмили Бедфорд
Сюжет фильма:
Группа оборотней спускается в небольшой город в поисках девушки, которая может родиться один раз в 2000 лет. Она держит ключ к их выживанию и все умрут, кто стоит на их пути.

  • Мировая премьера: 10 апреля 2015


Перевод: Enigma
Озвучивание: Хихикающий доктор

Качество видео: WEB-DLRip

Продолжительность: 01:25:34
Формат: AVI
Видео: XviD, 720x304 (2.35:1), 23.976 fps, 1856 kbps
Аудио: русский, любительский одноголосый закадровый, MP3 2.0, 44.1 kHz, 192 kbps

Код:

Общее
Полное имя                               : Dark.Moon.Rising.2015.Xixidok.avi
Формат                                   : AVI
Формат/Информация                        : Audio Video Interleave
Размер файла                             : 1,23 Гбайт
Продолжительность                        : 1 ч. 25 м.
Общий поток                              : 2057 Кбит/сек
Программа кодирования                    : VirtualDubMod 1.5.10.3 (build 2550/release)
Библиотека кодирования                   : VirtualDubMod build 2550/release

Видео
Идентификатор                            : 0
Формат                                   : MPEG-4 Visual
Профиль формата                          : Advanced Simple@L5
Параметр BVOP формата                    : 2
Параметр QPel формата                    : Нет
Параметр GMC формата                     : Без точки перехода
Параметр матрицы формата                 : Default (H.263)
Режим смешивания                         : Сжатый битовый поток
Идентификатор кодека                     : XVID
Идентификатор кодека/Подсказка           : XviD
Продолжительность                        : 1 ч. 25 м.
Битрейт                                  : 1856 Кбит/сек
Ширина                                   : 720 пикселей
Высота                                   : 304 пикселя
Соотношение сторон                       : 2,35:1
Частота кадров                           : 23,976 кадра/сек
Цветовое пространство                    : YUV
Субдискретизация насыщенности            : 4:2:0
Битовая глубина                          : 8 бит
Тип развёртки                            : Прогрессивная
Метод сжатия                             : С потерями
Бит/(Пиксели*Кадры)                      : 0.354
Размер потока                            : 1,11 Гбайт (90%)
Библиотека кодирования                   : XviD 66

Аудио
Идентификатор                            : 1
Формат                                   : MPEG Audio
Версия формата                           : Version 1
Профиль формата                          : Layer 3
Идентификатор кодека                     : 55
Идентификатор кодека/Подсказка           : MP3
Продолжительность                        : 1 ч. 25 м.
Вид битрейта                             : Постоянный
Битрейт                                  : 192 Кбит/сек
Каналы                                   : 2 канала
Частота                                  : 44,1 КГц
Метод сжатия                             : С потерями
Размер потока                            : 118 Мбайт (9%)
Выравнивание                             : Разделение по промежуткам
Продолжительность промежутка             : 42  мс. (1,00 видеокадр)
Время предзагрузки промежутка            : 500  мс.
picpicpicpicpic
Для увеличения картинки щелкните мышкой по превью

Этот торрент недоступен для скачивания без регистрации, однако доступен по публичной magnet-ссылке (источники с публичных трекеров). Перед использованием ссылки прочтите, пожалуйста Пользовательское соглашение, а также как можно дольше оставайтесь на раздаче! Для того, чтобы скачать сам торрент-файл (который видит больше источников), а также для того, чтобы поблагодарить релизера, вам необходимо зарегистрироваться. Если регистрироваться лень - вы можете также попробовать скачать релиз по нашим партнерским ссылкам ниже.

[underverse.su].t57073.torrent
Трекер: Зарегистрирован   [ 14.08.2015 14:40 ]  

Статус: проверено (by makkol at 15.08.2015 11:27)
Поблагодарили: пока никто не поблагодарил...
Тип торрента: публичный - доступные источники с открытых трекеров: 
Размер: 1,23 GB (занимает 0,28 DVDR, для записи нужно 1 болванка DVDR/RW)
 
 
Похожие темы
Форум Тема Автор Торрент Отв. Посл. сооб.
Зарубежное кино [HDDVDRip / BDRip / WEB-DL / HDTV 1080/720р] Восход тёмной луны / Оборотень / Dark Moon Rising (Джастин Прайс) [2015 г., фэнтези, WEB-DL 720p] VO + Original + Subs (Eng) makkol
6 | 0

0 | 627

18

14.08.2015 14:53


Яндекс.Метрика powered by Sphinx


В Н И М А Н И Е
Сайт не распространяет и не хранит электронные версии произведений, а лишь бесплатно и без коммерческой выгоды (не требуя взамен платы,
SMS и т.д.) предоставляет доступ к создаваемому пользователями каталогу ссылок на торрент-файлы, которые содержат только списки хеш-сумм.
Убедительная просьба с жалобами обращаться напрямую к пользователю, разместившему торрент файл.

Вверх