Loading...
Error

Кости / Bones / Сезон 6 (1-23 серии из 23) (Иэн Тойнтон, Дуайт Х. Литтл, Жанно Шварц) [2010 г., драма, мелодрама, комедия, криминал, детектив, WEB-DLRip] Dub + Original

Статистика раздачи
Размер:  13,76 GB   |    Зарегистрирован:  1 год 3 месяца   |    Скачан:  2 раза

Полного источника не было: 15 дней

Сидов:  0  |  0 KB/s  ]   Личеров:  0  |  0 KB/s  ]

* - сиды/пиры с внешних источников

   
 
Автор Сообщение

older Пол:Муж

14-Авг-2015 10:25

Кости / Bones / Сезон 6 (1-23 серии)


Год выпуска: 2010
Жанр: драма, мелодрама, комедия, криминал, детектив
Страна: США
Режиссер: Иэн Тойнтон, Дуайт Х. Литтл, Жанно Шварц
В ролях: Эмили Дешанель, Дэвид Бореаназ, Михаэлла Конлин, Ти-Джей Тайн, Тамара Тейлор, Эрик Миллеган, Джон Фрэнсис Дейли, Джонатан Адамс, Патриция Белчер, Дэвид Гринман
Сюжет фильма:
Доктор Темперанс Бреннан, блестящий, но одинокий антрополог получает то, чего она меньше всего желала — напарника. Бюро посылает ей амбициозного агента ФБР Сили Бута, чтобы помочь в расследовании нераскрытых дел путем изучения и идентификации костей давно пропавших людей. Но давно умершие жертвы не единственное, с чем придется столкнуться Боунс, Буту и их команде, раскрывая преступления они часто сталкиваются с взяточничеством, коррупцией и местной разрозненностью.

Качество видео: WEB-DLRip

Продолжительность: ~ 00:43:00
Формат: AVI
Видео: XviD, 720х400, 1570 kbps
Аудио #1: русский, дублированный - ТВ3, AC3 2.0, 192 kbps
Аудио #2: английский, оригинал, MP3 2.0, 192 kbps

Код:

Общее
Полное имя                               :\Кости (6 сезон) - ТВ3\Bones.6x01.WEB-DLRip.avi
Формат                                   : AVI
Формат/Информация                        : Audio Video Interleave
Размер файла                             : 617 Мбайт
Продолжительность                        : 43 м.
Общий поток                              : 1968 Кбит/сек
Программа кодирования                    : VirtualDubMod 1.5.10.2 (build 2540/release)
Библиотека кодирования                   : VirtualDubMod build 2540/release

Видео
Идентификатор                            : 0
Формат                                   : MPEG-4 Visual
Профиль формата                          : Advanced Simple@L5
Параметр BVOP формата                    : 2
Параметр QPel формата                    : Нет
Параметр GMC формата                     : Без точки перехода
Параметр матрицы формата                 : Default (H.263)
Идентификатор кодека                     : XVID
Идентификатор кодека/Подсказка           : XviD
Продолжительность                        : 43 м.
Битрейт                                  : 1570 Кбит/сек
Ширина                                   : 720 пикселей
Высота                                   : 400 пикселей
Соотношение сторон                       : 16:9
Частота кадров                           : 23,976 кадра/сек
Цветовое пространство                    : YUV
Субдискретизация насыщенности            : 4:2:0
Битовая глубина                          : 8 бит
Тип развёртки                            : Прогрессивная
Метод сжатия                             : С потерями
Бит/(Пиксели*Кадры)                      : 0.227
Размер потока                            : 492 Мбайт (80%)
Библиотека кодирования                   : XviD 1.2.1 (UTC 2008-12-04)

Аудио #1
Идентификатор                            : 1
Формат                                   : AC-3
Формат/Информация                        : Audio Coding 3
Расширение режима                        : CM (complete main)
Параметр Endianness формата              : Big
Идентификатор кодека                     : 2000
Продолжительность                        : 43 м.
Вид битрейта                             : Постоянный
Битрейт                                  : 192 Кбит/сек
Каналы                                   : 2 канала
Расположение каналов                     : Front: L R
Частота                                  : 48,0 КГц
Битовая глубина                          : 16 бит
Метод сжатия                             : С потерями
Размер потока                            : 60,2 Мбайт (10%)
Выравнивание                             : Разделение по промежуткам
Продолжительность промежутка             : 42  мс. (1,00 видеокадр)
Время предзагрузки промежутка            : 500  мс.

Аудио #2
Идентификатор                            : 2
Формат                                   : MPEG Audio
Версия формата                           : Version 1
Профиль формата                          : Layer 3
Режим                                    : Joint stereo
Расширение режима                        : MS Stereo
Идентификатор кодека                     : 55
Идентификатор кодека/Подсказка           : MP3
Продолжительность                        : 43 м.
Вид битрейта                             : Постоянный
Битрейт                                  : 192 Кбит/сек
Каналы                                   : 2 канала
Частота                                  : 48,0 КГц
Метод сжатия                             : С потерями
Задержка видео                           : 768 мс.
Размер потока                            : 60,2 Мбайт (10%)
Выравнивание                             : Разделение по промежуткам
Продолжительность промежутка             : 42  мс. (1,00 видеокадр)
Время предзагрузки промежутка            : 504  мс.
Библиотека кодирования                   : LAME3.98.2UUUnѓ€‡C

Релиз группы:

picpicpicpicpic
Для увеличения картинки щелкните мышкой по превью

Этот торрент недоступен для скачивания без регистрации, однако доступен по публичной magnet-ссылке (источники с публичных трекеров). Перед использованием ссылки прочтите, пожалуйста Пользовательское соглашение, а также как можно дольше оставайтесь на раздаче! Для того, чтобы скачать сам торрент-файл (который видит больше источников), а также для того, чтобы поблагодарить релизера, вам необходимо зарегистрироваться. Если регистрироваться лень - вы можете также попробовать скачать релиз по нашим партнерским ссылкам ниже.

[underverse.su].t57050.torrent
Трекер: Зарегистрирован   [ 14.08.2015 10:25 ]  

Статус: проверено (by makkol at 15.08.2015 10:28)
Поблагодарили: пока никто не поблагодарил...
Тип торрента: публичный - доступные источники с открытых трекеров: 
Размер: 13,76 GB (занимает 3,14 DVDR, для записи нужно 4 болванки DVDR/RW)
 
 
Похожие темы
Форум Тема Автор Торрент Отв. Посл. сооб.
Зарубежные сериалы Кости / Bones / Сезон 5 (1-22 серии из 22) (Иэн Тойнтон, Дуайт Х. Литтл, Жанно Шварц) [2009 г., драма, мелодрама, комедия, криминал, детектив, WEB-DLRip] Dub older
44 | 10

0 | 303

5

14.08.2015 09:44

Зарубежные сериалы Кости / Bones / Сезон 7 (1-13 серии из 13) (Иэн Тойнтон, Дуайт Х. Литтл, Жанно Шварц) [2011 г., драма, мелодрама, комедия, криминал, детектив, WEB-DLRip] Dub + Original older
1 | 0

0 | 327

2

14.08.2015 10:58

Зарубежные сериалы Кости / Bones / Сезон 8 (1-24 серии из 24) (Иэн Тойнтон, Дуайт Х. Литтл, Жанно Шварц) [2012 г., драма, мелодрама, комедия, криминал, детектив, WEB-DLRip] Dub + Original older
5 | 0

0 | 463

2

14.08.2015 14:27

Зарубежные сериалы Кости / Bones / Сезон 9 (1-24 серии из 24) (Иэн Тойнтон, Дуайт Х. Литтл, Жанно Шварц) [2013 г., драма, мелодрама, комедия, криминал, детектив, WEB-DLRip] Dub + Original older
88 | 8

0 | 426

3

15.08.2015 06:05

Зарубежные сериалы Кости / Bones / Сезон 10 (1-22 серии из 22) (Иэн Тойнтон, Дуайт Х. Литтл, Жанно Шварц) [2014-2015 г., драма, мелодрама, комедия, криминал, детектив, WEB-DLRip] MVO (BaibaKo) + Original older
86 | 33

0 | 465

4

15.08.2015 06:27

Зарубежные сериалы Кости / Bones / Сезон 10 (1-22 серии из 22) (Иэн Тойнтон, Дуайт Х. Литтл, Жанно Шварц) [2014-2015 г., драма, мелодрама, комедия, криминал, детектив, WEB-DLRip] MVO (IdeaFilm) + Original older
50 | 12

0 | 442

2

15.08.2015 08:39


Яндекс.Метрика powered by Sphinx


В Н И М А Н И Е
Сайт не распространяет и не хранит электронные версии произведений, а лишь бесплатно и без коммерческой выгоды (не требуя взамен платы,
SMS и т.д.) предоставляет доступ к создаваемому пользователями каталогу ссылок на торрент-файлы, которые содержат только списки хеш-сумм.
Убедительная просьба с жалобами обращаться напрямую к пользователю, разместившему торрент файл.

Вверх