Loading...
Error

Кости / Bones / Сезон 5 (1-22 серии из 22) (Иэн Тойнтон, Дуайт Х. Литтл, Жанно Шварц) [2009 г., драма, мелодрама, комедия, криминал, детектив, WEB-DLRip] Dub

Статистика раздачи
Размер:  11,94 GB   |    Зарегистрирован:  1 год 3 месяца   |    Скачан:  5 раз

Полного источника не было: 20 дней

Сидов:  0  |  0 KB/s  ]   Личеров:  0  |  0 KB/s  ]

* - сиды/пиры с внешних источников

   
 
Автор Сообщение

older Пол:Муж

14-Авг-2015 09:44

Кости / Bones / Сезон 5 (1-22 серии)


Год выпуска: 2009
Жанр: драма, мелодрама, комедия, криминал, детектив
Страна: США
Режиссер: Иэн Тойнтон, Дуайт Х. Литтл, Жанно Шварц
В ролях: Патриция Белчер, Натан Дин, Дэвид Бореаназ, Михаэлла Конлин, Эрик Миллеган, Тамара Тейлор, Джонатан Адамс, Эмили Дешанель
Сюжет фильма:
Главная героиня сериала - доктор Темперанс Бреннан (Эмили Дешанель), блестящий судебный антрополог работает на ФБР, а в свободное время пишет романы. Темперанс владеет особым методом идентификации останков, что позволяет ей докапываться до истины и раскрывать преступления даже тогда, когда обычные методы криминалистики уже не действуют. В буквальном смысле слова она находит «ключи» к преступлениям в костях жертвы. Именно поэтому, возможно, ее часто привлекают к расследованию нераскрытых дел или дел с большим сроком давности.
Очень часто Темперанс приходится работать в паре со специальным агентом того же бюро Сили Бутом из отдела по расследованию убийств (Дэвид Бореаназ). Бут, бывший армейский снайпер, весьма скептический относится и к науке, и к ее представителям, презрительно называя их «очкарики». Его точка зрения на раскрытие преступлений весьма проста: узнать правду можно лишь используя старомодные методы ведения дел, т.е. «работая» с теми, кто жив, - свидетелями и подозреваемыми. Столкновение личных и профессиональных интересов героев сериала «Кости» проходит центральной темой во всех сериях.

Качество видео: WEB-DLRip

Продолжительность: ~ 00:44:00
Формат: AVI
Видео: XviD, 720х400, 1564 kbps
Аудио: русский, дублированный - ТВ3, AC3 2.0, 192 kbps
1.Harbingers in a Fountain
2.The Bond in the Boot
3.The Plain in the Prodigy
4.The Beautiful Day in the Neighborhood
5.A Night at the Bones Museum
6.The Tough Man in the Tender Chicken
7.The Dwarf in the Dirt
8.The Foot in the Foreclosure
9.The Gamer in the Grease
10.The Goop on the Girl
11.The X in the File
12.The Proof in the Pudding
13.The Dentist in the Ditch
14.The Devil in the Details
15.The Bones on a Blue Line
16.The Parts in the Sum of the Whole
17.The Death of the Queen Bee
18.The Predator in the Pool
19.The Rocker in the Rinse Cycle
20.The Witch in the Wardrobe
21.The Boy with the Answer
22.The Beginning in the End

Код:

Общее
Полное имя                               :\Bones.Season 5.Dub TV3\Bones.5x01.WEB-DLRip.Rus.[www.*другой трекер*].avi
Формат                                   : AVI
Формат/Информация                        : Audio Video Interleave
Размер файла                             : 556 Мбайт
Продолжительность                        : 44 м.
Общий поток                              : 1765 Кбит/сек
Программа кодирования                    : VirtualDubModRus 1.5.10.1 (build 2439/release)
Библиотека кодирования                   : VirtualDubMod build 2439/release

Видео
Идентификатор                            : 0
Формат                                   : MPEG-4 Visual
Профиль формата                          : Advanced Simple@L5
Параметр BVOP формата                    : 3
Параметр QPel формата                    : Нет
Параметр GMC формата                     : Без точки перехода
Параметр матрицы формата                 : Default (H.263)
Идентификатор кодека                     : XVID
Идентификатор кодека/Подсказка           : XviD
Продолжительность                        : 44 м.
Битрейт                                  : 1564 Кбит/сек
Ширина                                   : 720 пикселей
Высота                                   : 400 пикселей
Соотношение сторон                       : 16:9
Частота кадров                           : 23,976 кадра/сек
Цветовое пространство                    : YUV
Субдискретизация насыщенности            : 4:2:0
Битовая глубина                          : 8 бит
Тип развёртки                            : Прогрессивная
Метод сжатия                             : С потерями
Бит/(Пиксели*Кадры)                      : 0.226
Размер потока                            : 492 Мбайт (89%)
Библиотека кодирования                   : XviD 1.2.0.dev47 (UTC 2006-11-01)

Аудио
Идентификатор                            : 1
Формат                                   : AC-3
Формат/Информация                        : Audio Coding 3
Расширение режима                        : CM (complete main)
Параметр Endianness формата              : Big
Идентификатор кодека                     : 2000
Продолжительность                        : 44 м.
Вид битрейта                             : Постоянный
Битрейт                                  : 192 Кбит/сек
Каналы                                   : 2 канала
Расположение каналов                     : Front: L R
Частота                                  : 48,0 КГц
Битовая глубина                          : 16 бит
Метод сжатия                             : С потерями
Размер потока                            : 60,5 Мбайт (11%)
Выравнивание                             : Разделение по промежуткам
Продолжительность промежутка             : 42  мс. (1,00 видеокадр)
Время предзагрузки промежутка            : 500  мс.

Релиз группы:

picpicpicpicpic
Для увеличения картинки щелкните мышкой по превью

Этот торрент недоступен для скачивания без регистрации, однако доступен по публичной magnet-ссылке (источники с публичных трекеров). Перед использованием ссылки прочтите, пожалуйста Пользовательское соглашение, а также как можно дольше оставайтесь на раздаче! Для того, чтобы скачать сам торрент-файл (который видит больше источников), а также для того, чтобы поблагодарить релизера, вам необходимо зарегистрироваться. Если регистрироваться лень - вы можете также попробовать скачать релиз по нашим партнерским ссылкам ниже.

[underverse.su].t57049.torrent
Трекер: Зарегистрирован   [ 14.08.2015 09:44 ]  

Статус: проверено (by makkol at 15.08.2015 10:27)
Поблагодарили: пока никто не поблагодарил...
Тип торрента: публичный - доступные источники с открытых трекеров: 
Размер: 11,94 GB (занимает 2,73 DVDR, для записи нужно 3 болванки DVDR/RW)
 
 
Похожие темы
Форум Тема Автор Торрент Отв. Посл. сооб.
Зарубежные сериалы Кости / Bones / Сезон 6 (1-23 серии из 23) (Иэн Тойнтон, Дуайт Х. Литтл, Жанно Шварц) [2010 г., драма, мелодрама, комедия, криминал, детектив, WEB-DLRip] Dub + Original older
26 | 3

0 | 317

2

14.08.2015 10:25

Зарубежные сериалы Кости / Bones / Сезон 7 (1-13 серии из 13) (Иэн Тойнтон, Дуайт Х. Литтл, Жанно Шварц) [2011 г., драма, мелодрама, комедия, криминал, детектив, WEB-DLRip] Dub + Original older
1 | 0

0 | 329

2

14.08.2015 10:58

Зарубежные сериалы Кости / Bones / Сезон 8 (1-24 серии из 24) (Иэн Тойнтон, Дуайт Х. Литтл, Жанно Шварц) [2012 г., драма, мелодрама, комедия, криминал, детектив, WEB-DLRip] Dub + Original older
5 | 0

0 | 465

2

14.08.2015 14:27

Зарубежные сериалы Кости / Bones / Сезон 9 (1-24 серии из 24) (Иэн Тойнтон, Дуайт Х. Литтл, Жанно Шварц) [2013 г., драма, мелодрама, комедия, криминал, детектив, WEB-DLRip] Dub + Original older
88 | 8

0 | 430

3

15.08.2015 06:05

Зарубежные сериалы Кости / Bones / Сезон 10 (1-22 серии из 22) (Иэн Тойнтон, Дуайт Х. Литтл, Жанно Шварц) [2014-2015 г., драма, мелодрама, комедия, криминал, детектив, WEB-DLRip] MVO (BaibaKo) + Original older
69 | 12

0 | 467

4

15.08.2015 06:27

Зарубежные сериалы Кости / Bones / Сезон 10 (1-22 серии из 22) (Иэн Тойнтон, Дуайт Х. Литтл, Жанно Шварц) [2014-2015 г., драма, мелодрама, комедия, криминал, детектив, WEB-DLRip] MVO (IdeaFilm) + Original older
50 | 12

0 | 442

2

15.08.2015 08:39


Яндекс.Метрика powered by Sphinx


В Н И М А Н И Е
Сайт не распространяет и не хранит электронные версии произведений, а лишь бесплатно и без коммерческой выгоды (не требуя взамен платы,
SMS и т.д.) предоставляет доступ к создаваемому пользователями каталогу ссылок на торрент-файлы, которые содержат только списки хеш-сумм.
Убедительная просьба с жалобами обращаться напрямую к пользователю, разместившему торрент файл.

Вверх