Loading...
Error

Битва за тяжёлую воду / Kampen om tungtvannet / Сезон 1 (1-6 серии из 6) (Ketil Golme Andersen, Ларс Андерсен, Метте М. Больстад) [2015 г., драма, военный, история, HDRip] AVO

Статистика раздачи
Размер:  4,1 GB   |    Зарегистрирован:  1 год 3 месяца   |    Скачан:  4 раза

Полного источника не было: 1 год 1 месяц

Сидов:  0  |  0 KB/s  ]   Личеров:  0  |  0 KB/s  ]

* - сиды/пиры с внешних источников

   
 
Автор Сообщение

older Пол:Муж

14-Авг-2015 08:25

Битва за тяжёлую воду / Kampen om tungtvannet / Сезон 1 (1-6 серии)


Год выпуска: 2015
Жанр: драма, военный, история
Страна: Норвегия
Режиссер: Ketil Gølme Andersen, Ларс Андерсен, Метте М. Больстад
В ролях: Андреас Дёлер, Роберт Хунгер-Бюлер, Марк Беньямин Пух, Кристоф Бах, Пери Баумейстер, Эспен Ребол Бьерке, Торстейн Бьёрклунд, Оле Кристоффер Эртвог, Ейрик Эвьен
Сюжет фильма:
Сериал рассказывает о диверсионной операции по уничтожению завода в норвежском посёлке Рьюкан, на котором во время второй мировой войны было налажено производство тяжёлой воды, используемой гитлеровской Германией в собственном ядерном проекте для производства ядерного оружия. История показана с четырёх точек зрения - немецкой, союзников по антигитлеровской коалиции, команды диверсантов, а также со стороны компании «Norsk Hydro», владеющей заводом.

Качество видео: HDRip

Продолжительность: ~ 00:44:00
Формат: AVI
Видео: XviD, 720х400, 1978 kbps
Аудио: русский, одноголосый закадровый [авторский] - Дмитрий Есарев , AC3 2.0, 192 kbps

Код:

Общее
Полное имя                               :\Сражение за тяжёлую воду\Srajeniye.za.vodu.Ep01.Esarev.HDRip.avi
Формат                                   : AVI
Формат/Информация                        : Audio Video Interleave
Размер файла                             : 700 Мбайт
Продолжительность                        : 44 м.
Общий поток                              : 2180 Кбит/сек
Программа кодирования                    : VirtualDubMod 1.5.10.2 (build 2540/release)
Библиотека кодирования                   : VirtualDubMod build 2540/release

Видео
Идентификатор                            : 0
Формат                                   : MPEG-4 Visual
Профиль формата                          : Advanced Simple@L5
Параметр BVOP формата                    : 2
Параметр QPel формата                    : Нет
Параметр GMC формата                     : Без точки перехода
Параметр матрицы формата                 : Default (MPEG)
Идентификатор кодека                     : XVID
Идентификатор кодека/Подсказка           : XviD
Продолжительность                        : 44 м.
Битрейт                                  : 1978 Кбит/сек
Ширина                                   : 720 пикселей
Высота                                   : 400 пикселей
Соотношение сторон                       : 16:9
Частота кадров                           : 25,000 кадров/сек
Цветовое пространство                    : YUV
Субдискретизация насыщенности            : 4:2:0
Битовая глубина                          : 8 бит
Тип развёртки                            : Прогрессивная
Метод сжатия                             : С потерями
Бит/(Пиксели*Кадры)                      : 0.275
Размер потока                            : 635 Мбайт (91%)
Библиотека кодирования                   : XviD 1.2.1 (UTC 2008-12-04)

Аудио
Идентификатор                            : 1
Формат                                   : AC-3
Формат/Информация                        : Audio Coding 3
Расширение режима                        : CM (complete main)
Параметр Endianness формата              : Big
Идентификатор кодека                     : 2000
Продолжительность                        : 44 м.
Вид битрейта                             : Постоянный
Битрейт                                  : 192 Кбит/сек
Каналы                                   : 2 канала
Расположение каналов                     : Front: L R
Частота                                  : 48,0 КГц
Битовая глубина                          : 16 бит
Метод сжатия                             : С потерями
Размер потока                            : 61,7 Мбайт (9%)
Выравнивание                             : Разделение по промежуткам
Продолжительность промежутка             : 40  мс. (1,00 видеокадр)
Время предзагрузки промежутка            : 500  мс.

Семпл:

Релиз группы:

picpicpicpicpic
Для увеличения картинки щелкните мышкой по превью

Этот торрент недоступен для скачивания без регистрации, однако доступен по публичной magnet-ссылке (источники с публичных трекеров). Перед использованием ссылки прочтите, пожалуйста Пользовательское соглашение, а также как можно дольше оставайтесь на раздаче! Для того, чтобы скачать сам торрент-файл (который видит больше источников), а также для того, чтобы поблагодарить релизера, вам необходимо зарегистрироваться. Если регистрироваться лень - вы можете также попробовать скачать релиз по нашим партнерским ссылкам ниже.

[underverse.su].t57047.torrent
Трекер: Зарегистрирован   [ 14.08.2015 08:36 ]  

Статус: проверено (by makkol at 15.08.2015 10:25)
Поблагодарили: пока никто не поблагодарил...
Тип торрента: публичный - доступные источники с открытых трекеров: 
Размер: 4,1 GB (занимает 0,94 DVDR, для записи нужно 1 болванка DVDR/RW)
 
 

Яндекс.Метрика powered by Sphinx


В Н И М А Н И Е
Сайт не распространяет и не хранит электронные версии произведений, а лишь бесплатно и без коммерческой выгоды (не требуя взамен платы,
SMS и т.д.) предоставляет доступ к создаваемому пользователями каталогу ссылок на торрент-файлы, которые содержат только списки хеш-сумм.
Убедительная просьба с жалобами обращаться напрямую к пользователю, разместившему торрент файл.

Вверх