Loading...
Error

Убийство первой степени / Murder in the First / Сезон 2 (1-12 серии из 12) (Джесси Бокко, Эллисон Андерс, Реджинальд Хадлин) [2015 г., драма, криминал, детектив, WEB-DLRip] DVO + Original

Статистика раздачи
Размер:  6,03 GB   |    Зарегистрирован:  1 год 3 месяца   |    Скачан:  4 раза

Полного источника не было: 1 год

Сидов:  0  |  0 KB/s  ]   Личеров:  0  |  0 KB/s  ]

* - сиды/пиры с внешних источников

   
 
Автор Сообщение

older Пол:Муж

14-Авг-2015 06:28

Убийство первой степени / Murder in the First / Сезон 2 (1-12 серии)


Год выпуска: 2015
Жанр: драма, криминал, детектив
Страна: США
Режиссер: Джесси Бокко, Эллисон Андерс, Реджинальд Хадлин
В ролях: Йен Энтони Дэйл, Карри Грэм, Кэтлин Робертсон, Тэй Диггз, Мими Кирклэнд, Джейми МакШейн, Марисса Армихо, Брианна Дэвис, Камилль Бальзамо, Питер Онорати
Сюжет фильма:
В центре сюжета сериала, действие которого разворачивается в Сан-Франциско, находятся детективы Терри Сигрейв и Хилди Маллиган, которые расследуют обычное убийство наркомана, однако в ходе развития дела выходят на генерального директора компании по разработке передовых технологий Эриха Бланта.

Качество видео: WEB-DLRip

Продолжительность: ~ 00:42:00
Формат: AVI
Видео: XviD, 720х400, 1190 kbps
Аудио #1: русский, двухголосый закадровый [любительский], MP3 2.0, 128 kbps
Аудио #2: английский, оригинал, MP3 2.0, 128 kbps

Код:

Общее
Полное имя                               :\Murder.in.the.First.s02.WEB-DLRip.HamsterStudio\Murder.in.the.First.s02e01.WEB-DLRip.HamsterStudio.avi
Формат                                   : AVI
Формат/Информация                        : Audio Video Interleave
Размер файла                             : 441 Мбайт
Продолжительность                        : 42 м.
Общий поток                              : 1460 Кбит/сек
Программа кодирования                    : VirtualDubModRus 1.5.10.2 (build 2540/release)
Библиотека кодирования                   : VirtualDubMod build 2540/release

Видео
Идентификатор                            : 0
Формат                                   : MPEG-4 Visual
Профиль формата                          : Advanced Simple@L5
Параметр BVOP формата                    : 1
Параметр QPel формата                    : Нет
Параметр GMC формата                     : Без точки перехода
Параметр матрицы формата                 : Default (H.263)
Идентификатор кодека                     : XVID
Идентификатор кодека/Подсказка           : XviD
Продолжительность                        : 42 м.
Битрейт                                  : 1190 Кбит/сек
Ширина                                   : 720 пикселей
Высота                                   : 400 пикселей
Соотношение сторон                       : 16:9
Частота кадров                           : 23,976 кадра/сек
Цветовое пространство                    : YUV
Субдискретизация насыщенности            : 4:2:0
Битовая глубина                          : 8 бит
Тип развёртки                            : Прогрессивная
Метод сжатия                             : С потерями
Бит/(Пиксели*Кадры)                      : 0.172
Размер потока                            : 360 Мбайт (82%)
Библиотека кодирования                   : XviD 1.2.1 (UTC 2008-12-04)

Аудио #1
Идентификатор                            : 1
Формат                                   : MPEG Audio
Версия формата                           : Version 1
Профиль формата                          : Layer 3
Режим                                    : Joint stereo
Расширение режима                        : MS Stereo
Идентификатор кодека                     : 55
Идентификатор кодека/Подсказка           : MP3
Продолжительность                        : 42 м.
Вид битрейта                             : Постоянный
Битрейт                                  : 128 Кбит/сек
Каналы                                   : 2 канала
Частота                                  : 48,0 КГц
Метод сжатия                             : С потерями
Размер потока                            : 38,7 Мбайт (9%)
Выравнивание                             : Соединение по промежуткам
Продолжительность промежутка             : 42  мс. (1,00 видеокадр)
Время предзагрузки промежутка            : 504  мс.

Аудио #2
Идентификатор                            : 2
Формат                                   : MPEG Audio
Версия формата                           : Version 1
Профиль формата                          : Layer 3
Идентификатор кодека                     : 55
Идентификатор кодека/Подсказка           : MP3
Продолжительность                        : 42 м.
Вид битрейта                             : Постоянный
Битрейт                                  : 128 Кбит/сек
Каналы                                   : 2 канала
Частота                                  : 48,0 КГц
Метод сжатия                             : С потерями
Размер потока                            : 38,7 Мбайт (9%)
Выравнивание                             : Соединение по промежуткам
Продолжительность промежутка             : 42  мс. (1,00 видеокадр)
Время предзагрузки промежутка            : 504  мс.
Библиотека кодирования                   : LAME3.99r
Настройки программы                      : -m s -V 4 -q 2 -lowpass 17 -b 128

Внимание! Раздача ведётся путём добавления новых серий
При каждом добавлении создаётся новый торрент. Чтобы начать докачку новой серии, пользователям необходимо сделать следующее:
1. Остановить скачивание,
2. Удалить старый торрент у себя из клиента (старые серии удалять не надо),
3. Скачать новый торрент и запустить его у себя в клиенте вместо старого, при этом указать клиенту путь в старую папку куда и должно происходить скачивание новых серий.
Ваш клиент при этом должен произвести хеширование (проверку) старой папки (если не производит сам - помогите ему сделать это), и будет докачивать только те серии которых у вас ещё нет. Старые серии при этом не удаляются, а продолжают раздаваться!
Если вы уже удалили старые серии, то предотвратить повторную закачку старых серий можно, отжав галочку в соответствующих местах при запуске нового торрента.
Релиз группы:

picpicpicpicpic
Для увеличения картинки щелкните мышкой по превью

Этот торрент недоступен для скачивания без регистрации, однако доступен по публичной magnet-ссылке (источники с публичных трекеров). Перед использованием ссылки прочтите, пожалуйста Пользовательское соглашение, а также как можно дольше оставайтесь на раздаче! Для того, чтобы скачать сам торрент-файл (который видит больше источников), а также для того, чтобы поблагодарить релизера, вам необходимо зарегистрироваться. Если регистрироваться лень - вы можете также попробовать скачать релиз по нашим партнерским ссылкам ниже.

[underverse.su].t57034.torrent
Трекер: Зарегистрирован   [ 27.08.2015 08:11 ]  

Статус: проверено (by makkol at 27.08.2015 10:54)
Поблагодарили: пока никто не поблагодарил...
Тип торрента: публичный - доступные источники с открытых трекеров: 
Размер: 6,03 GB (занимает 1,38 DVDR, для записи нужно 2 болванки DVDR/RW)
 
 
Похожие темы
Форум Тема Автор Торрент Отв. Посл. сооб.
Зарубежные сериалы Убийство первой степени / Murder in the First / Сезон 1 (1-10 серии из 10) (Джесси Бокко, Эллисон Андерс, Реджинальд Хадлин) [2014 г., драма, криминал, детектив, WEB-DLRip] DVO + Original older
51 | 9

0 | 482

5

12.08.2015 10:32

Discovery Убийство по дружбе / Murder Among Friends (1-10 серий из 10) / (Омар Самад) [2016 г., документальный, расследования, история, криминал, SatRip] DVO ARI71
2 | 0

1 | 1266

0

27.09.2016 14:11



Последний раз редактировалось: older (01.09.2015 04:07), всего редактировалось 4 раз(а)

older Пол:Муж

15-Авг-2015 05:26

15.08.15. Раздача обновлена!
Добавлена 10 серия.
Перекачайте торрент файл!

older Пол:Муж

20-Авг-2015 09:15

20.08.15. Раздача обновлена!
Добавлена 11 серия.
Перекачайте торрент файл!

older Пол:Муж

27-Авг-2015 08:12

27.08.15. Раздача обновлена!
Добавлена 12, последняя серия. Сезон представлен полностью.
Перекачайте торрент файл!

Яндекс.Метрика powered by Sphinx


В Н И М А Н И Е
Сайт не распространяет и не хранит электронные версии произведений, а лишь бесплатно и без коммерческой выгоды (не требуя взамен платы,
SMS и т.д.) предоставляет доступ к создаваемому пользователями каталогу ссылок на торрент-файлы, которые содержат только списки хеш-сумм.
Убедительная просьба с жалобами обращаться напрямую к пользователю, разместившему торрент файл.

Вверх