Loading...
Error

Социалистическая резня зомби / Истребление зомби по-социалистически / Socialisticky Zombi Mord (Растислав Блажек, Петер Цермак, Зузана Паулини) [2014 г., ужасы, DVDRip] VO

Статистика раздачи
Размер:  1,37 GB   |    Зарегистрирован:  1 год 3 месяца   |    Скачан:  18 раз

Полного источника не было: 3 дня

Сидов:  0  |  0 KB/s  ]   Личеров:  0  |  0 KB/s  ]

* - сиды/пиры с внешних источников

   
 
Автор Сообщение

makkol Пол:Муж

13-Авг-2015 23:24

Социалистическая резня зомби / Истребление зомби по-социалистически / Socialisticky Zombi Mord


Год выпуска: 2014
Жанр: ужасы
Страна: Словакия
Режиссер: Растислав Блажек, Петер Цермак, Зузана Паулини
В ролях: Борис Битуков, Виктор Гжевенг, Ханка Харенкарова, Петер Левай, Дениса Ротлингова, Вероника Валентовикова, Тибор Звонар
Сюжет фильма:
Всё начинается в далёком 1968 году, когда неудачу терпит советский секретный эксперимент под кодовым названием "ЗАРАЗА", который должен был вывести из строя врагов социализма, заразив смертельной болезнью. Эксперимент выходит из под контроля, его быстренько сворачивают, но часть образцов секретного газа, под видом обычных дымовых шашек исчезает. Чехословакия 1985 год. В одно из сельскохозяйственных училищ, на уроки военной подготовки завезли дымовые шашки. Но они оказались не простыми...

  • Мировая премьера: 25 апреля 2014


Качество видео: DVDRip

Продолжительность: 01:34:00
Формат: AVI
Видео: XviD, 720x400 (16:9), 25.000 fps, 1880 kbps
Аудио: русский, любительский одноголосый закадровый (Васька Куролесов), AC3 2.0, 48 kHz, 192 kbps

Код:

Общее
Полное имя                               : Socialisticky Zombi Mord (2014).avi
Формат                                   : AVI
Формат/Информация                        : Audio Video Interleave
Размер файла                             : 1,37 Гбайт
Продолжительность                        : 1 ч. 34 м.
Общий поток                              : 2082 Кбит/сек
Программа кодирования                    : VirtualDubMod 1.5.10.3 | www.virtualdub-fr.org || (build 2550/release)
Библиотека кодирования                   : VirtualDubMod build 2550/release

Видео
Идентификатор                            : 0
Формат                                   : MPEG-4 Visual
Профиль формата                          : Advanced Simple@L5
Параметр BVOP формата                    : 1
Параметр QPel формата                    : Нет
Параметр GMC формата                     : Без точки перехода
Параметр матрицы формата                 : Default (H.263)
Идентификатор кодека                     : XVID
Идентификатор кодека/Подсказка           : XviD
Продолжительность                        : 1 ч. 34 м.
Битрейт                                  : 1880 Кбит/сек
Ширина                                   : 720 пикселей
Высота                                   : 400 пикселей
Соотношение сторон                       : 16:9
Частота кадров                           : 25,000 кадров/сек
Цветовое пространство                    : YUV
Субдискретизация насыщенности            : 4:2:0
Битовая глубина                          : 8 бит
Тип развёртки                            : Прогрессивная
Метод сжатия                             : С потерями
Бит/(Пиксели*Кадры)                      : 0.261
Размер потока                            : 1,23 Гбайт (90%)
Библиотека кодирования                   : XviD 1.2.1 (UTC 2008-12-04)

Аудио
Идентификатор                            : 1
Формат                                   : AC-3
Формат/Информация                        : Audio Coding 3
Расширение режима                        : CM (complete main)
Параметр Endianness формата              : Big
Идентификатор кодека                     : 2000
Продолжительность                        : 1 ч. 34 м.
Вид битрейта                             : Постоянный
Битрейт                                  : 192 Кбит/сек
Каналы                                   : 2 канала
Расположение каналов                     : Front: L R
Частота                                  : 48,0 КГц
Метод сжатия                             : С потерями
Размер потока                            : 129 Мбайт (9%)
Выравнивание                             : Разделение по промежуткам
Продолжительность промежутка             : 40  мс. (1,00 видеокадр)
Время предзагрузки промежутка            : 500  мс.
picpicpicpicpic
Для увеличения картинки щелкните мышкой по превью

Этот торрент недоступен для скачивания без регистрации, однако доступен по публичной magnet-ссылке (источники с публичных трекеров). Перед использованием ссылки прочтите, пожалуйста Пользовательское соглашение, а также как можно дольше оставайтесь на раздаче! Для того, чтобы скачать сам торрент-файл (который видит больше источников), а также для того, чтобы поблагодарить релизера, вам необходимо зарегистрироваться. Если регистрироваться лень - вы можете также попробовать скачать релиз по нашим партнерским ссылкам ниже.

[underverse.su].t57030.torrent
Трекер: Зарегистрирован   [ 13.08.2015 23:24 ]  

Статус: проверено (by makkol at 15.08.2015 11:25)
Поблагодарили: 1 человек
Тип торрента: публичный - доступные источники с открытых трекеров: 
Размер: 1,37 GB (занимает 0,31 DVDR, для записи нужно 1 болванка DVDR/RW)
 
 

dargot54 Пол:Муж

22-Ноя-2015 16:27

Забавный фильм и девчонки симпатичные :-)

Яндекс.Метрика powered by Sphinx


В Н И М А Н И Е
Сайт не распространяет и не хранит электронные версии произведений, а лишь бесплатно и без коммерческой выгоды (не требуя взамен платы,
SMS и т.д.) предоставляет доступ к создаваемому пользователями каталогу ссылок на торрент-файлы, которые содержат только списки хеш-сумм.
Убедительная просьба с жалобами обращаться напрямую к пользователю, разместившему торрент файл.

Вверх