Loading...
Error

Кремниевая Долина / Silicon Valley / Сезон 2 (1-10 серии из 10) (Майк Джадж, Алек Берг, Тришиа Брок) [2015 г., комедия, HDTVRip] DVO + Original

Статистика раздачи
Размер:  2,96 GB   |    Зарегистрирован:  1 год 3 месяца   |    Скачан:  12 раз

Полного источника не было: 9 часов

Сидов:  0  |  0 KB/s  ]   Личеров:  0  |  0 KB/s  ]

* - сиды/пиры с внешних источников

   
 
Автор Сообщение

older Пол:Муж

13-Авг-2015 09:00

Кремниевая Долина / Silicon Valley / Сезон 2 (1-10 серии)


Год выпуска: 2015
Жанр: комедия
Страна: США
Режиссер: Майк Джадж, Алек Берг, Тришиа Брок
В ролях: Аманда Крю, Эли Мави, Джэйк Бродер, Энди Бакли, Порша Коулмэн, Джимми Оуянг, Остин Абрамс, Victor Achkeev, Джилл Е. Александр, Бобак Бахтиари
Сюжет фильма:
Жизнь в Силиконовой долине – жестокая борьба за место под калифорнийским солнцем. Каждый здесь мечтает стать новым Джобсом. Шестеро молодых айтишников пытаются придумать прорывный стартап, который принесет им славу и деньги. Но великие изобретатели беспомощны в повседневной жизни, а толковые прагматики не могут справиться со звездной болезнью. Создатель шоу Майк Джадж, автор «Бивиса и Баттхеда», знает, как превратить эти гиковские сложности в комедию.

Качество видео: HDTVRip

Продолжительность: ~ 00:30:00
Формат: AVI
Видео: XviD, 624x352, 1003 kbps
Аудио #1: русский, двухголосый закадровый [профессиональный] - Кубик в Кубе, MP3 2.0, 224 kbps
Аудио #2: английский, оригинал, MP3 2.0, 224 kbps

Код:

Общее
Полное имя                               :\Silicon Valley Season 2 Kybik v Kybe\Silicon.Valley.s02e01.rus.eng.CasStudio.TV.avi
Формат                                   : AVI
Формат/Информация                        : Audio Video Interleave
Размер файла                             : 314 Мбайт
Продолжительность                        : 30 м.
Общий поток                              : 1465 Кбит/сек
Программа кодирования                    : VirtualDubMod 1.5.10.2 (build 2540/release)
Библиотека кодирования                   : VirtualDubMod build 2540/release

Видео
Идентификатор                            : 0
Формат                                   : MPEG-4 Visual
Профиль формата                          : Advanced Simple@L5
Параметр BVOP формата                    : 1
Параметр QPel формата                    : Нет
Параметр GMC формата                     : Без точки перехода
Параметр матрицы формата                 : Default (H.263)
Идентификатор кодека                     : XVID
Идентификатор кодека/Подсказка           : XviD
Продолжительность                        : 30 м.
Битрейт                                  : 1003 Кбит/сек
Ширина                                   : 624 пикселя
Высота                                   : 352 пикселя
Соотношение сторон                       : 16:9
Частота кадров                           : 23,976 кадра/сек
Цветовое пространство                    : YUV
Субдискретизация насыщенности            : 4:2:0
Битовая глубина                          : 8 бит
Тип развёртки                            : Прогрессивная
Метод сжатия                             : С потерями
Бит/(Пиксели*Кадры)                      : 0.190
Размер потока                            : 215 Мбайт (68%)
Библиотека кодирования                   : XviD 73

Аудио #1
Идентификатор                            : 1
Формат                                   : MPEG Audio
Версия формата                           : Version 1
Профиль формата                          : Layer 3
Идентификатор кодека                     : 55
Идентификатор кодека/Подсказка           : MP3
Продолжительность                        : 30 м.
Вид битрейта                             : Постоянный
Битрейт                                  : 224 Кбит/сек
Каналы                                   : 2 канала
Частота                                  : 48,0 КГц
Метод сжатия                             : С потерями
Размер потока                            : 48,1 Мбайт (15%)
Выравнивание                             : Соединение по промежуткам
Продолжительность промежутка             : 42  мс. (1,00 видеокадр)
Время предзагрузки промежутка            : 504  мс.

Аудио #2
Идентификатор                            : 2
Формат                                   : MPEG Audio
Версия формата                           : Version 1
Профиль формата                          : Layer 3
Режим                                    : Joint stereo
Идентификатор кодека                     : 55
Идентификатор кодека/Подсказка           : MP3
Продолжительность                        : 30 м.
Вид битрейта                             : Постоянный
Битрейт                                  : 224 Кбит/сек
Каналы                                   : 2 канала
Частота                                  : 48,0 КГц
Метод сжатия                             : С потерями
Размер потока                            : 48,1 Мбайт (15%)
Выравнивание                             : Соединение по промежуткам
Продолжительность промежутка             : 42  мс. (1,00 видеокадр)
Время предзагрузки промежутка            : 504  мс.
Библиотека кодирования                   : LAME3.99r
Настройки программы                      : -m j -V 4 -q 2 -lowpass 19.4 -b 224

Семпл:

Релиз группы:

picpicpicpicpic
Для увеличения картинки щелкните мышкой по превью

Этот торрент недоступен для скачивания без регистрации, однако доступен по публичной magnet-ссылке (источники с публичных трекеров). Перед использованием ссылки прочтите, пожалуйста Пользовательское соглашение, а также как можно дольше оставайтесь на раздаче! Для того, чтобы скачать сам торрент-файл (который видит больше источников), а также для того, чтобы поблагодарить релизера, вам необходимо зарегистрироваться. Если регистрироваться лень - вы можете также попробовать скачать релиз по нашим партнерским ссылкам ниже.

[underverse.su].t57004.torrent
Трекер: Зарегистрирован   [ 13.08.2015 09:00 ]  

Статус: проверено (by makkol at 14.08.2015 15:09)
Поблагодарили: пока никто не поблагодарил...
Тип торрента: публичный - доступные источники с открытых трекеров: 
Размер: 2,96 GB (занимает 0,68 DVDR, для записи нужно 1 болванка DVDR/RW)
 
 
Похожие темы
Форум Тема Автор Торрент Отв. Посл. сооб.
Зарубежные сериалы Кремниевая Долина / Silicon Valley / Сезон 1 (1-8 серии из 8) (Майк Джадж, Алек Берг, Тришиа Брок) [2014 г., комедия, HDTVRip] DVO + Original older
17 | 3

0 | 898

13

13.08.2015 08:40


Яндекс.Метрика powered by Sphinx


В Н И М А Н И Е
Сайт не распространяет и не хранит электронные версии произведений, а лишь бесплатно и без коммерческой выгоды (не требуя взамен платы,
SMS и т.д.) предоставляет доступ к создаваемому пользователями каталогу ссылок на торрент-файлы, которые содержат только списки хеш-сумм.
Убедительная просьба с жалобами обращаться напрямую к пользователю, разместившему торрент файл.

Вверх