Loading...
Error

Секс в большом городе / Sex and the City / Сезоны 1-6 (1-94 серии из 94) (Майкл Патрик Кинг, Аллен Култер, Майкл Энглер) [1998-2004 г., мелодрама, комедия, DVDRip-AVC] MVO + Original

Статистика раздачи
Размер:  41,14 GB   |    Зарегистрирован:  1 год 3 месяца   |    Скачан:  6 раз

Полного источника не было: 25 дней

Сидов:  0  |  0 KB/s  ]   Личеров:  0  |  0 KB/s  ]

* - сиды/пиры с внешних источников

   
 
Автор Сообщение

older Пол:Муж

13-Авг-2015 07:35

Секс в большом городе / Sex and the City / Сезоны 1-6 (1-94 серии)


Год выпуска: 1998-2004
Жанр: мелодрама, комедия
Страна: США
Режиссер: Майкл Патрик Кинг, Аллен Култер, Майкл Энглер
В ролях: Сара Джессика Паркер, Линда Евангелиста, Роберт Джон Берк, Кристин Дэвис, Фрэнсис Стернхаген, Себастьян Роше, Синтия Никсон, Джон Корбетт, Рон Ливингстон, Ким Кэтролл, Марк Марголис, Линн Коэн, Эван Хэндлер, Джеймс Римар, Крис Нот, Дэвид Духовны, Дэвид Эйгенберг, Вилли Гарсон, Михаил Барышников, Марио Кантоне, Мирей Инос
Сюжет фильма:
Кэрри, Саманта, Миранда и Шарлотта давно дружат. Но их отношение к жизненным ценностям не совпадает. Кэрри убеждена, что ей нужна настоящая любовь, Саманте важны сексуальные победы, Миранда делает карьеру, а Шарлотта придерживается консервативных взглядов на семейную жизнь. Они не боятся смело шагать по жизни в неизменном окружении восхищенных мужчин. Верные подруги делятся своими переживаниями, рассказывая обо всем с юмором и не без пикантных подробностей. Сериал полностью опровергает расхожее мнение о том, что женской дружбы не бывает, и раскрывает сокровенные тайны большинства женщин.

Качество видео: DVDRip-AVC

Продолжительность: ~ 00:26:00
Формат: MKV
Видео: MPEG-4 AVC, 704x528, 2323 kbps
Аудио #1: русский, многоголосый закадровый [профессиональный] - НТВ, AC3 2.0, 192 kbps
Аудио #2: английский, оригинал, AC3 2.0, 192 kbps

Код:

Общее
Уникальный идентификатор                 : 249927834557772381547149970982093929810 (0xBC06599CF25DEACABC514534151F3D52)
Полное имя                               :\Sex in City DVD-Rip-AVC\01\0101 - Sex and the City.mkv
Формат                                   : Matroska
Версия формата                           : Version 2
Размер файла                             : 518 Мбайт
Продолжительность                        : 26 м.
Общий поток                              : 2762 Кбит/сек
Название фильма                          : Секс в большом городе - 0101 - Секс в большом городе (Sex and the City) / Релиз - D2T/"Криволапый ювелир"
Дата кодирования                         : UTC 2012-07-23 18:46:22
Программа кодирования                    : mkvmerge v4.0.0 ('The Stars were mine') сборка от Jun  6 2010 16:18:42
Библиотека кодирования                   : libebml v1.0.0 + libmatroska v1.0.0

Видео
Идентификатор                            : 1
Формат                                   : AVC
Формат/Информация                        : Advanced Video Codec
Профиль формата                          : High@L3.0
Параметр CABAC формата                   : Да
Параметр ReFrames формата                : 4 кадра
Идентификатор кодека                     : V_MPEG4/ISO/AVC
Продолжительность                        : 26 м.
Битрейт                                  : 2323 Кбит/сек
Ширина                                   : 704 пикселя
Высота                                   : 528 пикселей
Соотношение сторон                       : 4:3
Режим частоты кадров                     : Постоянный
Частота кадров                           : 25,000 кадров/сек
Цветовое пространство                    : YUV
Субдискретизация насыщенности            : 4:2:0
Битовая глубина                          : 8 бит
Тип развёртки                            : Прогрессивная
Бит/(Пиксели*Кадры)                      : 0.250
Размер потока                            : 436 Мбайт (84%)
Библиотека кодирования                   : x264 core 120 r2164 da19765
Настройки программы                      : cabac=1 / ref=4 / deblock=1:0:0 / analyse=0x3:0x113 / me=tesa / subme=9 / psy=1 / psy_rd=1.00:0.00 / mixed_ref=1 / me_range=16 / chroma_me=1 / trellis=2 / 8x8dct=1 / cqm=0 / deadzone=21,11 / fast_pskip=1 / chroma_qp_offset=-2 / threads=6 / sliced_threads=0 / nr=0 / decimate=1 / interlaced=0 / bluray_compat=0 / constrained_intra=0 / bframes=4 / b_pyramid=2 / b_adapt=2 / b_bias=0 / direct=3 / weightb=1 / open_gop=0 / weightp=2 / keyint=150 / keyint_min=1 / scenecut=33 / intra_refresh=0 / rc=cqp / mbtree=0 / qp=20 / ip_ratio=1.40 / pb_ratio=1.30 / aq=0
Язык                                     : English
Default                                  : Нет
Forced                                   : Нет

Аудио #1
Идентификатор                            : 2
Формат                                   : AC-3
Формат/Информация                        : Audio Coding 3
Расширение режима                        : CM (complete main)
Параметр Endianness формата              : Big
Идентификатор кодека                     : A_AC3
Продолжительность                        : 26 м.
Вид битрейта                             : Постоянный
Битрейт                                  : 192 Кбит/сек
Каналы                                   : 2 канала
Расположение каналов                     : Front: L R
Частота                                  : 48,0 КГц
Битовая глубина                          : 16 бит
Метод сжатия                             : С потерями
Размер потока                            : 36,0 Мбайт (7%)
Язык                                     : Russian
Default                                  : Да
Forced                                   : Нет

Аудио #2
Идентификатор                            : 3
Формат                                   : AC-3
Формат/Информация                        : Audio Coding 3
Расширение режима                        : CM (complete main)
Параметр Endianness формата              : Big
Идентификатор кодека                     : A_AC3
Продолжительность                        : 26 м.
Вид битрейта                             : Постоянный
Битрейт                                  : 192 Кбит/сек
Каналы                                   : 2 канала
Расположение каналов                     : Front: L R
Частота                                  : 48,0 КГц
Битовая глубина                          : 16 бит
Метод сжатия                             : С потерями
Размер потока                            : 36,0 Мбайт (7%)
Язык                                     : English
Default                                  : Нет
Forced                                   : Нет

Релиз группы: НТВ

picpicpicpicpic
Для увеличения картинки щелкните мышкой по превью

Этот торрент недоступен для скачивания без регистрации, однако доступен по публичной magnet-ссылке (источники с публичных трекеров). Перед использованием ссылки прочтите, пожалуйста Пользовательское соглашение, а также как можно дольше оставайтесь на раздаче! Для того, чтобы скачать сам торрент-файл (который видит больше источников), а также для того, чтобы поблагодарить релизера, вам необходимо зарегистрироваться. Если регистрироваться лень - вы можете также попробовать скачать релиз по нашим партнерским ссылкам ниже.

[underverse.su].t57000.torrent
Трекер: Зарегистрирован   [ 13.08.2015 07:35 ]  

Статус: проверено (by makkol at 14.08.2015 15:04)
Поблагодарили: пока никто не поблагодарил...
Тип торрента: публичный - доступные источники с открытых трекеров: 
Размер: 41,14 GB (занимает 9,4 DVDR, для записи нужно 10 болванок DVDR/RW)
 
 
Похожие темы
Форум Тема Автор Торрент Отв. Посл. сооб.
* Архив Секс в большом городе / Sex and the City (Майкл Патрик Кинг) [2008 г., комедия, мелодрама, BDRip] kid8177

8 | 1529

29.08.2010 23:52

Архив Секс в большом городе 2 / Sex and the City 2 (Майкл Патрик Кинг) [2010 г., комедия, мелодрама, HD-DVDRip] Dub Лицензия Алексей 25
0 | 0

1 | 805

0

16.06.2011 08:08

Архив Секс в большом городе 2 / Sex and the City 2 (Майкл Патрик Кинг) [2010 г., комедия, драма, мелодрама, DVD-9] SKRiptus
0 | 0

2 | 1081

0

16.06.2011 08:09


Яндекс.Метрика powered by Sphinx


В Н И М А Н И Е
Сайт не распространяет и не хранит электронные версии произведений, а лишь бесплатно и без коммерческой выгоды (не требуя взамен платы,
SMS и т.д.) предоставляет доступ к создаваемому пользователями каталогу ссылок на торрент-файлы, которые содержат только списки хеш-сумм.
Убедительная просьба с жалобами обращаться напрямую к пользователю, разместившему торрент файл.

Вверх