Loading...
Error

Возвращенные / Вернувшиеся / The Returned / Сезон 1 (1-10 серии из 10) (Дженнифер Гетцингер, Чарльз Мартин, Деран Сарафян) [2015 г., ужасы, драма, HDTVRip] MVO + Original

Статистика раздачи
Размер:  4,36 GB   |    Зарегистрирован:  1 год 3 месяца   |    Скачан:  4 раза

Полного источника не было: 4 месяца 9 дней

Сидов:  0  |  0 KB/s  ]   Личеров:  0  |  0 KB/s  ]

* - сиды/пиры с внешних источников

   
 
Автор Сообщение

older Пол:Муж

13-Авг-2015 06:07

Возвращенные / Вернувшиеся / The Returned / Сезон 1 (1-10 серии)


Год выпуска: 2015
Жанр: ужасы, драма
Страна: США
Режиссер: Дженнифер Гетцингер, Чарльз Мартин, Деран Сарафян
В ролях: Мэри Элизабет Уинстэд, Дилан Кингуэлл, Джереми Систо, Софи Лоу, Марк Пеллегрино, Аарон Дуглас, Леа Гибсон, Чела Хорсдэл, Джейн Крэйвен, Моник Питер, Брюс Блэйн, Индия Энненга, Сандрин Холт, Мат Ваиро, Мишель Форбс
Сюжет фильма:
Сериал рассказывает о маленьком городке, жизнь в котором перевернулась с ног на голову, когда неожиданно объявились несколько местных жителей, которых давно считали погибшими. Причем они совсем не постарели с момента их исчезновения и, более того, ничего не знали о собственной смерти.

Качество видео: HDTVRip

Продолжительность: ~ 00:45:00
Формат: AVI
Видео: XviD, 640x360, 990 kbps
Аудио #1: русский, многоголосый закадровый [профессиональный] - Jaskier, MP3 2.0, 128 kbps
Аудио #2: английский, оригинал, MP3 2.0, 128 kbps

Код:

Общее
Полное имя                               :\Torrents G\1\The Returned.Jaskier\The.Returned.s01e01.Jaskier.avi
Формат                                   : AVI
Формат/Информация                        : Audio Video Interleave
Размер файла                             : 415 Мбайт
Продолжительность                        : 45 м.
Режим общего битрейта                    : Переменный
Общий поток                              : 1263 Кбит/сек
Программа кодирования                    : VirtualDubMod 1.5.10.2 (build 2540/release)
Библиотека кодирования                   : VirtualDubMod build 2540/release

Видео
Идентификатор                            : 0
Формат                                   : MPEG-4 Visual
Профиль формата                          : Advanced Simple@L5
Параметр BVOP формата                    : 2
Параметр QPel формата                    : Нет
Параметр GMC формата                     : Без точки перехода
Параметр матрицы формата                 : Default (H.263)
Идентификатор кодека                     : XVID
Идентификатор кодека/Подсказка           : XviD
Продолжительность                        : 45 м.
Битрейт                                  : 990 Кбит/сек
Ширина                                   : 640 пикселей
Высота                                   : 360 пикселей
Соотношение сторон                       : 16:9
Частота кадров                           : 23,976 кадра/сек
Цветовое пространство                    : YUV
Субдискретизация насыщенности            : 4:2:0
Битовая глубина                          : 8 бит
Тип развёртки                            : Прогрессивная
Метод сжатия                             : С потерями
Бит/(Пиксели*Кадры)                      : 0.179
Размер потока                            : 325 Мбайт (78%)
Библиотека кодирования                   : XviD 64

Аудио #1
Идентификатор                            : 1
Формат                                   : MPEG Audio
Версия формата                           : Version 1
Профиль формата                          : Layer 3
Режим                                    : Joint stereo
Расширение режима                        : MS Stereo
Идентификатор кодека                     : 55
Идентификатор кодека/Подсказка           : MP3
Продолжительность                        : 45 м.
Вид битрейта                             : Постоянный
Битрейт                                  : 128 Кбит/сек
Каналы                                   : 2 канала
Частота                                  : 44,1 КГц
Метод сжатия                             : С потерями
Размер потока                            : 42,1 Мбайт (10%)
Выравнивание                             : Разделение по промежуткам
Продолжительность промежутка             : 42  мс. (1,00 видеокадр)
Время предзагрузки промежутка            : 500  мс.

Аудио #2
Идентификатор                            : 2
Формат                                   : MPEG Audio
Версия формата                           : Version 1
Профиль формата                          : Layer 3
Режим                                    : Joint stereo
Расширение режима                        : MS Stereo
Идентификатор кодека                     : 55
Идентификатор кодека/Подсказка           : MP3
Продолжительность                        : 45 м.
Вид битрейта                             : Переменный
Битрейт                                  : 128 Кбит/сек
Каналы                                   : 2 канала
Частота                                  : 48,0 КГц
Метод сжатия                             : С потерями
Размер потока                            : 42,1 Мбайт (10%)
Выравнивание                             : Соединение по промежуткам
Продолжительность промежутка             : 24  мс. (0,58 видеокадр)
Время предзагрузки промежутка            : 490  мс.

Релиз группы: Jaskier

picpicpicpicpic
Для увеличения картинки щелкните мышкой по превью

Этот торрент недоступен для скачивания без регистрации, однако доступен по публичной magnet-ссылке (источники с публичных трекеров). Перед использованием ссылки прочтите, пожалуйста Пользовательское соглашение, а также как можно дольше оставайтесь на раздаче! Для того, чтобы скачать сам торрент-файл (который видит больше источников), а также для того, чтобы поблагодарить релизера, вам необходимо зарегистрироваться. Если регистрироваться лень - вы можете также попробовать скачать релиз по нашим партнерским ссылкам ниже.

[underverse.su].t56999.torrent
Трекер: Зарегистрирован   [ 13.08.2015 06:07 ]  

Статус: проверено (by makkol at 14.08.2015 14:57)
Поблагодарили: пока никто не поблагодарил...
Тип торрента: публичный - доступные источники с открытых трекеров: 
Размер: 4,36 GB (занимает 1 DVDR, для записи нужно 1 болванка DVDR/RW)
 
 

Яндекс.Метрика powered by Sphinx


В Н И М А Н И Е
Сайт не распространяет и не хранит электронные версии произведений, а лишь бесплатно и без коммерческой выгоды (не требуя взамен платы,
SMS и т.д.) предоставляет доступ к создаваемому пользователями каталогу ссылок на торрент-файлы, которые содержат только списки хеш-сумм.
Убедительная просьба с жалобами обращаться напрямую к пользователю, разместившему торрент файл.

Вверх