Loading...
Error

Эскорт / The Escort (Уилл Слокомб) [2015 г., комедия, WEB-DLRip] DVO

Статистика раздачи
Размер:  1,47 GB   |    Зарегистрирован:  1 год 3 месяца   |    Скачан:  39 раз

Полного источника не было: 2 дня 3 часа

Сидов:  0  |  0 KB/s  ]   Личеров:  0  |  0 KB/s  ]

* - сиды/пиры с внешних источников

   
 
Автор Сообщение

makkol Пол:Муж

12-Авг-2015 22:28

Эскорт / The Escort


Год выпуска: 2015
Жанр: комедия
Производство: США [Cloverhill Pictures, Perspective Productions, Skyhook Productions]
Режиссер: Уилл Слокомб
В ролях: Брюс Кэмпбелл, Линдси Фонсека, Румер Уиллис, Соня Уолгер, Икбал Теба, Дэн Баккедаль, Томми Дьюи, Сэм Дэйли, Рэйчел Решефф, Анна Конкл, Дин Чеквала, Беннита Робледо, Мэтт Нолан, Кеисуке Хоаси, Майкл Донджер, Хуан Карлос Канту
Сюжет фильма:
Отчаянно нуждающийся в хорошей истории сексуально одержимый журналист погружается в мир эскорт-услуг высокого класса.

  • Мировая премьера: 15 июня 2015


Перевод: Михаил Васильев
Озвучивание: Lord32x, Катюша

Качество видео: WEB-DLRip

Продолжительность: 01:27:36
Формат: AVI
Видео: XviD, 720x400 (16:9), 23.976 fps, 2004 kbps
Аудио: русский, любительский двухголосый закадровый (Lord32x Studio), AC3 5.1, 48 kHz, 384 kbps

Код:

General
Complete name : KinoRay.The.Escort.2015.WEB-DLRip.1500MB.Lord32x.Studio.avi
Format : AVI
Format/Info : Audio Video Interleave
File size : 1.47 GiB
Duration : 1h 27mn
Overall bit rate : 2 397 Kbps
Writing application : VirtualDubMod 1.5.10.3 | www.virtualdub-fr.org || (build 2550/release)
Writing library : VirtualDubMod build 2550/release

Video
ID : 0
Format : MPEG-4 Visual
Format profile : Advanced Simple@L5
Format settings, BVOP : 1
Format settings, QPel : No
Format settings, GMC : No warppoints
Format settings, Matrix : Default (H.263)
Codec ID : XVID
Codec ID/Hint : XviD
Duration : 1h 27mn
Bit rate : 2 004 Kbps
Width : 720 pixels
Height : 400 pixels
Display aspect ratio : 16:9
Frame rate : 23.976 fps
Color space : YUV
Chroma subsampling : 4:2:0
Bit depth : 8 bits
Scan type : Progressive
Compression mode : Lossy
Bits/(Pixel*Frame) : 0.290
Stream size : 1.23 GiB (84%)
Writing library : XviD 1.2.1 (UTC 2008-12-04)

Audio
ID : 1
Format : AC-3
Format/Info : Audio Coding 3
Mode extension : CM (complete main)
Format settings, Endianness : Big
Codec ID : 2000
Duration : 1h 27mn
Bit rate mode : Constant
Bit rate : 384 Kbps
Channel(s) : 6 channels
Channel positions : Front: L C R, Side: L R, LFE
Sampling rate : 48.0 KHz
Bit depth : 16 bits
Compression mode : Lossy
Stream size : 241 MiB (16%)
Alignment : Split accross interleaves
Interleave, duration : 42 ms (1.00 video frame)
Interleave, preload duration : 500 ms
Релиз от:

picpicpicpicpic
Для увеличения картинки щелкните мышкой по превью

Этот торрент недоступен для скачивания без регистрации, однако доступен по публичной magnet-ссылке (источники с публичных трекеров). Перед использованием ссылки прочтите, пожалуйста Пользовательское соглашение, а также как можно дольше оставайтесь на раздаче! Для того, чтобы скачать сам торрент-файл (который видит больше источников), а также для того, чтобы поблагодарить релизера, вам необходимо зарегистрироваться. Если регистрироваться лень - вы можете также попробовать скачать релиз по нашим партнерским ссылкам ниже.

[underverse.su].t56989.torrent
Трекер: Зарегистрирован   [ 12.08.2015 22:28 ]  

Статус: проверено (by makkol at 13.08.2015 08:56)
Поблагодарили: пока никто не поблагодарил...
Тип торрента: публичный - доступные источники с открытых трекеров: 
Размер: 1,47 GB (занимает 0,34 DVDR, для записи нужно 1 болванка DVDR/RW)
 
 
Похожие темы
Форум Тема Автор Торрент Отв. Посл. сооб.
Зарубежное кино [DVDRip, Low-Res HDRip, и т.д.] Эскорт / The Escort (Гэри Грейвер) [1997 г., Триллер, Драма, DVDRip] DVO (RUS) + Original (ENG) Ведьмочка
0 | 0

0 | 471

3

28.01.2015 16:29

Зарубежное кино [HDDVDRip / BDRip / WEB-DL / HDTV 1080/720р] Эскорт / The Escort (Уилл Слокомб) [2015 г., комедия, WEB-DL 720p] DVO + Original makkol
8 | 0

0 | 296

8

12.08.2015 22:46

Зарубежное кино [HDDVDRip / BDRip / WEB-DL / HDTV 1080/720р] Эскорт / The Escort (Уилл Слокомб) [2015 г., комедия, WEB-DL 1080p] DVO + Original makkol
23 | 0

0 | 610

26

12.08.2015 22:58


Яндекс.Метрика powered by Sphinx


В Н И М А Н И Е
Сайт не распространяет и не хранит электронные версии произведений, а лишь бесплатно и без коммерческой выгоды (не требуя взамен платы,
SMS и т.д.) предоставляет доступ к создаваемому пользователями каталогу ссылок на торрент-файлы, которые содержат только списки хеш-сумм.
Убедительная просьба с жалобами обращаться напрямую к пользователю, разместившему торрент файл.

Вверх