Loading...
Error

Атлант расправил плечи: Часть 3 / Atlas Shrugged: Part III (Джеймс Манера) [2014 г., фантастика, драма, детектив, HDRip] DVO + Subs

Статистика раздачи
Размер:  1,45 GB   |    Зарегистрирован:  1 год 3 месяца   |    Скачан:  29 раз
Сидов:  1  |  0 KB/s  ]   Личеров:  0  |  0 KB/s  ]

* - сиды/пиры с внешних источников

   
 
Автор Сообщение

makkol Пол:Муж

12-Авг-2015 15:09

Атлант расправил плечи: Часть 3 / Atlas Shrugged: Part III


Год выпуска: 2014
Жанр: фантастика, драма, детектив
Производство: США [Atlas 3 Productions]
Режиссер: Джеймс Манера
В ролях: Кристоффер Полаха, Лаура Риган, Питер Маккензи, Грег Джерманн, Ларри Седар, Жоаким ди Алмейда, Джен Николайсен, Роб Морроу, Эрик Аллан Крамер, Луис Хертэм
Сюжет фильма:
Действие разворачивается в мире, где экономическая система пребывает на грани краха. По мере того как все происходящее все больше выходит из-под контроля властей, блестящие специалисты-профессионалы, от артистов до промышленников, продолжают бесследно исчезать. В то время как преступления и страх заполоняют все вокруг, правительство продолжает оказывать грубое давление и применять силу против граждан. Приближаясь к краху, национальная экономика быстро разрушается. У одного человека есть решение. Одна женщина стоит на его пути. Кое-кто не остановится ни перед чем, чтобы управлять им. Другие не остановятся ни перед чем, чтобы спасти его. Он поклялся своей жизнью. Они поклялись найти его. Кто такой Джон Голт?

  • Мировая премьера: 12 сентября 2014


Перевод: chup
Озвучивание: DeadSno & den904

Качество видео: HDRip

Продолжительность: 01:39:02
Формат: AVI
Видео: XviD, 720x400 (16:9), 23.976 fps, 1901 kbps
Аудио: русский, любительский двухголосый закадровый, AC3 2.0, 48 kHz, 192 kbps
Субтитры: русские внешие (на надписи)

Код:

Общее
Полное имя                               : Atlas.Shru88ed.Part.III.2014.L2.HDRip.1.46Gb.avi
Формат                                   : AVI
Формат/Информация                        : Audio Video Interleave
Размер файла                             : 1,45 Гбайт
Продолжительность                        : 1 ч. 39 м.
Общий поток                              : 2103 Кбит/сек
Программа кодирования                    : VirtualDubMod 1.5.10.2 (build 2540/release)
Библиотека кодирования                   : VirtualDubMod build 2540/release

Видео
Идентификатор                            : 0
Формат                                   : MPEG-4 Visual
Профиль формата                          : Advanced Simple@L5
Параметр BVOP формата                    : 2
Параметр QPel формата                    : Нет
Параметр GMC формата                     : Без точки перехода
Параметр матрицы формата                 : Default (MPEG)
Идентификатор кодека                     : XVID
Идентификатор кодека/Подсказка           : XviD
Продолжительность                        : 1 ч. 39 м.
Битрейт                                  : 1901 Кбит/сек
Ширина                                   : 720 пикселей
Высота                                   : 400 пикселей
Соотношение сторон                       : 16:9
Частота кадров                           : 23,976 кадра/сек
Цветовое пространство                    : YUV
Субдискретизация насыщенности            : 4:2:0
Битовая глубина                          : 8 бит
Тип развёртки                            : Прогрессивная
Метод сжатия                             : С потерями
Бит/(Пиксели*Кадры)                      : 0.263
Размер потока                            : 1,31 Гбайт (91%)
Библиотека кодирования                   : XviD 1.2.1 (UTC 2008-12-04)

Аудио
Идентификатор                            : 1
Формат                                   : AC-3
Формат/Информация                        : Audio Coding 3
Расширение режима                        : CM (complete main)
Параметр Endianness формата              : Big
Идентификатор кодека                     : 2000
Продолжительность                        : 1 ч. 39 м.
Вид битрейта                             : Постоянный
Битрейт                                  : 192 Кбит/сек
Каналы                                   : 2 канала
Расположение каналов                     : Front: L R
Частота                                  : 48,0 КГц
Метод сжатия                             : С потерями
Размер потока                            : 136 Мбайт (9%)
Выравнивание                             : Разделение по промежуткам
Релиз группы:

picpicpicpicpic
Для увеличения картинки щелкните мышкой по превью

Этот торрент недоступен для скачивания без регистрации, однако доступен по публичной magnet-ссылке (источники с публичных трекеров). Перед использованием ссылки прочтите, пожалуйста Пользовательское соглашение, а также как можно дольше оставайтесь на раздаче! Для того, чтобы скачать сам торрент-файл (который видит больше источников), а также для того, чтобы поблагодарить релизера, вам необходимо зарегистрироваться. Если регистрироваться лень - вы можете также попробовать скачать релиз по нашим партнерским ссылкам ниже.

[underverse.su].t56979.torrent
Трекер: Зарегистрирован   [ 12.08.2015 15:09 ]  

Статус: проверено (by makkol at 13.08.2015 08:55)
Поблагодарили: 2 человека
Тип торрента: публичный - доступные источники с открытых трекеров: 
Размер: 1,45 GB (занимает 1/3 DVDR, для записи нужно 1 болванка DVDR/RW)
 
 
Похожие темы
Форум Тема Автор Торрент Отв. Посл. сооб.
Зарубежное кино [DVDRip, Low-Res HDRip, и т.д.] Атлант расправил плечи / Atlas Shrugged: Part I (Пол Йоханссон) [2011 г., фантастика, драма, детектив, HDRip] RG NewCinema
1 | 0

0 | 777

29

07.06.2012 14:56

Зарубежное кино [DVDRip, Low-Res HDRip, и т.д.] Атлант расправил плечи: Часть 2 / Atlas Shrugged II: The Strike (Джон Путч) [2012 г., фантастика, драма, детектив, HDRip] VO 90ytr90
9 | 0

0 | 1399

76

28.02.2013 14:50

Зарубежное кино [HDDVDRip / BDRip / WEB-DL / HDTV 1080/720р] Атлант расправил плечи / Atlas Shrugged: Part I (Пол Йоханссон) [2011 г., Фантастика, драма, детектив, BDRip 720p] MVO + Original Чертёнок
2 | 1

1 | 3987

40

02.03.2013 19:22

Зарубежное кино [HDDVDRip / BDRip / WEB-DL / HDTV 1080/720р] Атлант расправил плечи: Часть 3 / Atlas Shrugged: Part III (Джеймс Манера) [2014 г., фантастика, драма, детектив, BDRip 720p] DVO + Original + Subs makkol
0 | 0

0 | 617

16

11.08.2015 15:06


Яндекс.Метрика powered by Sphinx


В Н И М А Н И Е
Сайт не распространяет и не хранит электронные версии произведений, а лишь бесплатно и без коммерческой выгоды (не требуя взамен платы,
SMS и т.д.) предоставляет доступ к создаваемому пользователями каталогу ссылок на торрент-файлы, которые содержат только списки хеш-сумм.
Убедительная просьба с жалобами обращаться напрямую к пользователю, разместившему торрент файл.

Вверх