Loading...
Error

Коварные горничные / Devious Maids / Сезон 3 (1-13 серии из 13) (Дэвид Уоррен, Тара Николь Вейр, Тауния Маккирнан) [2015 г., драма, комедия, детектив, WEB-DLRip] MVO

Статистика раздачи
Размер:  6,98 GB   |    Зарегистрирован:  1 год 3 месяца   |    Скачан:  2 раза

Полного источника не было: 4 месяца 16 дней

Сидов:  0  |  0 KB/s  ]   Личеров:  0  |  0 KB/s  ]

* - сиды/пиры с внешних источников

   
 
Автор Сообщение

older Пол:Муж

12-Авг-2015 09:16

Коварные горничные / Devious Maids / Сезон 3 (1-13 серии)


Год выпуска: 2015
Жанр: драма, комедия, детектив
Страна: США
Режиссер: Дэвид Уоррен, Тара Николь Вейр, Тауния Маккирнан
В ролях: Грант Шоу, Мелинда Пейдж Хэмилтон, Сьюзэн Луччи, Ана Ортиз, Дрю Ван Экер, Дания Рамирез, Эди Ганем, Джуди Рейс,Брианна Браун, Мариана Клавено и др.
Сюжет фильма:
В центре сюжета находятся четыре амбициозные латиноамериканские горничные, работающие в домах богатых и знаменитых жителей Беверли-Хиллз, подруга которых однажды была найдена жестоко убитой, забрав их общую шокирующую тайну с собой в могилу. После этого им приходится хранить секрет, чего бы это ни стоило, между тем работая на своих испорченных и красивых хозяев. Этот новый проект от создателя сериала «Отчаянных домохозяек» Марка Черри. Это адаптация мексиканского сериала, но режиссёр уверяет, что сюжет будет закручен не хуже, чем в «Отчаянных...».

Качество видео: WEB-DLRip

Продолжительность: ~ 00:43:00
Формат: AVI
Видео: XviD, 720х400, 1781 kbps
Аудио: русский, многоголосый закадровый [профессиональный], MP3 2.0, 192 kbps

Код:

Общее
Полное имя                               :\Devious.Maids (S03) LostFilm\Devious.Maids.S03E01.rus.LostFilm.TV.avi
Формат                                   : AVI
Формат/Информация                        : Audio Video Interleave
Размер файла                             : 598 Мбайт
Продолжительность                        : 42 м.
Режим общего битрейта                    : Переменный
Общий поток                              : 1984 Кбит/сек
Программа кодирования                    : Nandub v1.0rc2
Библиотека кодирования                   : Nandub build 1853/release

Видео
Идентификатор                            : 0
Формат                                   : MPEG-4 Visual
Профиль формата                          : Advanced Simple@L5
Параметр BVOP формата                    : Нет
Параметр QPel формата                    : Нет
Параметр GMC формата                     : Без точки перехода
Параметр матрицы формата                 : Default (H.263)
Идентификатор кодека                     : XVID
Идентификатор кодека/Подсказка           : XviD
Продолжительность                        : 42 м.
Битрейт                                  : 1781 Кбит/сек
Ширина                                   : 720 пикселей
Высота                                   : 400 пикселей
Соотношение сторон                       : 16:9
Частота кадров                           : 23,976 кадра/сек
Цветовое пространство                    : YUV
Субдискретизация насыщенности            : 4:2:0
Битовая глубина                          : 8 бит
Тип развёртки                            : Прогрессивная
Метод сжатия                             : С потерями
Бит/(Пиксели*Кадры)                      : 0.258
Размер потока                            : 537 Мбайт (90%)
Библиотека кодирования                   : XviD 1.2.1 (UTC 2008-12-04)

Аудио
Идентификатор                            : 1
Формат                                   : MPEG Audio
Версия формата                           : Version 1
Профиль формата                          : Layer 3
Режим                                    : Joint stereo
Расширение режима                        : MS Stereo
Идентификатор кодека                     : 55
Идентификатор кодека/Подсказка           : MP3
Продолжительность                        : 42 м.
Вид битрейта                             : Переменный
Битрейт                                  : 192 Кбит/сек
Каналы                                   : 2 канала
Частота                                  : 48,0 КГц
Метод сжатия                             : С потерями
Размер потока                            : 57,4 Мбайт (10%)
Выравнивание                             : Соединение по промежуткам
Продолжительность промежутка             : 24  мс. (0,58 видеокадр)
Время предзагрузки промежутка            : 479  мс.
Библиотека кодирования                   : LAME3.97b
Настройки программы                      : -m j -V 4 -q 3 -lowpass 18.6 --abr 192

Внимание! Раздача ведётся путём добавления новых серий
При каждом добавлении создаётся новый торрент. Чтобы начать докачку новой серии, пользователям необходимо сделать следующее:
1. Остановить скачивание,
2. Удалить старый торрент у себя из клиента (старые серии удалять не надо),
3. Скачать новый торрент и запустить его у себя в клиенте вместо старого, при этом указать клиенту путь в старую папку куда и должно происходить скачивание новых серий.
Ваш клиент при этом должен произвести хеширование (проверку) старой папки (если не производит сам - помогите ему сделать это), и будет докачивать только те серии которых у вас ещё нет. Старые серии при этом не удаляются, а продолжают раздаваться!
Если вы уже удалили старые серии, то предотвратить повторную закачку старых серий можно, отжав галочку в соответствующих местах при запуске нового торрента.
Семпл:

Релиз группы:

picpicpicpicpic
Для увеличения картинки щелкните мышкой по превью

Этот торрент недоступен для скачивания без регистрации, однако доступен по публичной magnet-ссылке (источники с публичных трекеров). Перед использованием ссылки прочтите, пожалуйста Пользовательское соглашение, а также как можно дольше оставайтесь на раздаче! Для того, чтобы скачать сам торрент-файл (который видит больше источников), а также для того, чтобы поблагодарить релизера, вам необходимо зарегистрироваться. Если регистрироваться лень - вы можете также попробовать скачать релиз по нашим партнерским ссылкам ниже.

[underverse.su].t56973.torrent
Трекер: Зарегистрирован   [ 27.08.2015 18:59 ]  

Статус: проверено (by makkol at 27.08.2015 23:03)
Поблагодарили: пока никто не поблагодарил...
Тип торрента: публичный - доступные источники с открытых трекеров: 
Размер: 6,98 GB (занимает 1,6 DVDR, для записи нужно 2 болванки DVDR/RW)
 
 
Похожие темы
Форум Тема Автор Торрент Отв. Посл. сооб.
Зарубежные сериалы Коварные горничные / Devious Maids / Сезон 1 (1-13 серии из 13) (Дэвид Уоррен, Тара Николь Вейр, Тауния Маккирнан) [2013 г., драма, комедия, детектив, WEB-DLRip] MVO older
8 | 0

0 | 395

7

12.08.2015 08:38

Зарубежные сериалы Коварные горничные / Devious Maids / Сезон 2 (1-13 серии из 13) (Дэвид Уоррен, Тара Николь Вейр, Тауния Маккирнан) [2014 г., драма, комедия, детектив, WEB-DLRip] MVO older
10 | 2

0 | 361

3

12.08.2015 08:59



Последний раз редактировалось: older (01.09.2015 04:06), всего редактировалось 3 раз(а)

older Пол:Муж

14-Авг-2015 05:44

14.08.15. Раздача обновлена!
Добавлена 11 серия.
Перекачайте торрент файл!

older Пол:Муж

21-Авг-2015 08:55

21.08.15. Раздача обновлена!
Добавлена 12 серия.
Перекачайте торрент файл!

older Пол:Муж

27-Авг-2015 18:59

27.08.15. Раздача обновлена!
Добавлена 13, последняя серия. Сезон представлен полностью.
Перекачайте торрент файл!

Яндекс.Метрика powered by Sphinx


В Н И М А Н И Е
Сайт не распространяет и не хранит электронные версии произведений, а лишь бесплатно и без коммерческой выгоды (не требуя взамен платы,
SMS и т.д.) предоставляет доступ к создаваемому пользователями каталогу ссылок на торрент-файлы, которые содержат только списки хеш-сумм.
Убедительная просьба с жалобами обращаться напрямую к пользователю, разместившему торрент файл.

Вверх