Loading...
Error

Коварные горничные / Devious Maids / Сезон 1 (1-13 серии из 13) (Дэвид Уоррен, Тара Николь Вейр, Тауния Маккирнан) [2013 г., драма, комедия, детектив, WEB-DLRip] MVO

Статистика раздачи
Размер:  5,28 GB   |    Зарегистрирован:  1 год 3 месяца   |    Скачан:  7 раз

Полного источника не было: 3 месяца 2 дня

Сидов:  0  |  0 KB/s  ]   Личеров:  0  |  0 KB/s  ]

* - сиды/пиры с внешних источников

   
 
Автор Сообщение

older Пол:Муж

12-Авг-2015 08:38

Коварные горничные / Devious Maids / Сезон 1 (1-13 серии)


Год выпуска: 2013
Жанр: драма, комедия, детектив
Страна: США
Режиссер: Дэвид Уоррен, Тара Николь Вейр, Тауния Маккирнан
В ролях: Грант Шоу, Мелинда Пейдж Хэмилтон, Сьюзэн Луччи, Ана Ортиз, Дрю Ван Экер, Дания Рамирез, Эди Ганем, Джуди Рейс, Брианна Браун, Мариана Клавено и др.
Сюжет фильма:
В центре сюжета находятся четыре амбициозные латиноамериканские горничные, работающие в домах богатых и знаменитых жителей Беверли-Хиллз, подруга которых однажды была найдена жестоко убитой, забрав их общую шокирующую тайну с собой в могилу. После этого им приходится хранить секрет, чего бы это ни стоило, между тем работая на своих испорченных и красивых хозяев.

Качество видео: WEB-DLRip

Продолжительность: ~ 00:43:00
Формат: AVI
Видео: XviD, 720х400, 1647 kbps
Аудио: многоголосый закадровый [профессиональный], MP3 2.0, 192 kbps

Код:

Общее
Полное имя                               :\Devious Maids (S01) LostFilm\Devious.Maids.S01E01.rus.LostFilm.TV.avi
Формат                                   : AVI
Формат/Информация                        : Audio Video Interleave
Размер файла                             : 575 Мбайт
Продолжительность                        : 43 м.
Режим общего битрейта                    : Переменный
Общий поток                              : 1846 Кбит/сек
Программа кодирования                    : Nandub v1.0rc2
Библиотека кодирования                   : Nandub build 1853/release

Видео
Идентификатор                            : 0
Формат                                   : MPEG-4 Visual
Профиль формата                          : Advanced Simple@L5
Параметр BVOP формата                    : Нет
Параметр QPel формата                    : Нет
Параметр GMC формата                     : Без точки перехода
Параметр матрицы формата                 : Default (H.263)
Идентификатор кодека                     : XVID
Идентификатор кодека/Подсказка           : XviD
Продолжительность                        : 43 м.
Битрейт                                  : 1647 Кбит/сек
Ширина                                   : 720 пикселей
Высота                                   : 400 пикселей
Соотношение сторон                       : 16:9
Частота кадров                           : 23,976 кадра/сек
Цветовое пространство                    : YUV
Субдискретизация насыщенности            : 4:2:0
Битовая глубина                          : 8 бит
Тип развёртки                            : Прогрессивная
Метод сжатия                             : С потерями
Бит/(Пиксели*Кадры)                      : 0.239
Размер потока                            : 513 Мбайт (89%)
Библиотека кодирования                   : XviD 1.2.1 (UTC 2008-12-04)

Аудио
Идентификатор                            : 1
Формат                                   : MPEG Audio
Версия формата                           : Version 1
Профиль формата                          : Layer 3
Режим                                    : Joint stereo
Расширение режима                        : MS Stereo
Идентификатор кодека                     : 55
Идентификатор кодека/Подсказка           : MP3
Продолжительность                        : 43 м.
Вид битрейта                             : Переменный
Битрейт                                  : 192 Кбит/сек
Каналы                                   : 2 канала
Частота                                  : 48,0 КГц
Метод сжатия                             : С потерями
Размер потока                            : 58,0 Мбайт (10%)
Выравнивание                             : Соединение по промежуткам
Продолжительность промежутка             : 24  мс. (0,58 видеокадр)
Время предзагрузки промежутка            : 490  мс.
Библиотека кодирования                   : LAME3.97b
Настройки программы                      : -m j -V 4 -q 3 -lowpass 18.6 --abr 192

Релиз группы:

picpicpicpicpic
Для увеличения картинки щелкните мышкой по превью

Этот торрент недоступен для скачивания без регистрации, однако доступен по публичной magnet-ссылке (источники с публичных трекеров). Перед использованием ссылки прочтите, пожалуйста Пользовательское соглашение, а также как можно дольше оставайтесь на раздаче! Для того, чтобы скачать сам торрент-файл (который видит больше источников), а также для того, чтобы поблагодарить релизера, вам необходимо зарегистрироваться. Если регистрироваться лень - вы можете также попробовать скачать релиз по нашим партнерским ссылкам ниже.

[underverse.su].t56971.torrent
Трекер: Зарегистрирован   [ 12.08.2015 08:38 ]  

Статус: проверено (by makkol at 12.08.2015 12:59)
Поблагодарили: пока никто не поблагодарил...
Тип торрента: публичный - доступные источники с открытых трекеров: 
Размер: 5,28 GB (занимает 1,21 DVDR, для записи нужно 2 болванки DVDR/RW)
 
 
Похожие темы
Форум Тема Автор Торрент Отв. Посл. сооб.
Зарубежные сериалы Коварные горничные / Devious Maids / Сезон 2 (1-13 серии из 13) (Дэвид Уоррен, Тара Николь Вейр, Тауния Маккирнан) [2014 г., драма, комедия, детектив, WEB-DLRip] MVO older
10 | 2

0 | 361

3

12.08.2015 08:59

Зарубежные сериалы Коварные горничные / Devious Maids / Сезон 3 (1-13 серии из 13) (Дэвид Уоррен, Тара Николь Вейр, Тауния Маккирнан) [2015 г., драма, комедия, детектив, WEB-DLRip] MVO older
41 | 11

3 | 702

2

27.08.2015 18:59


Яндекс.Метрика powered by Sphinx


В Н И М А Н И Е
Сайт не распространяет и не хранит электронные версии произведений, а лишь бесплатно и без коммерческой выгоды (не требуя взамен платы,
SMS и т.д.) предоставляет доступ к создаваемому пользователями каталогу ссылок на торрент-файлы, которые содержат только списки хеш-сумм.
Убедительная просьба с жалобами обращаться напрямую к пользователю, разместившему торрент файл.

Вверх