Loading...
Error

Железная схватка / Robot Overlords (Джон Райт) [2014 г., фантастика, боевик, приключения, HDRip] DVO

Статистика раздачи
Размер:  1,37 GB   |    Зарегистрирован:  1 год 3 месяца   |    Скачан:  28 раз

Полного источника не было: 2 месяца 24 дня

Сидов:  0  |  0 KB/s  ]   Личеров:  0  |  0 KB/s  ]

* - сиды/пиры с внешних источников

   
 
Автор Сообщение

makkol Пол:Муж

11-Авг-2015 23:00

Железная схватка / Robot Overlords
«Поклонись своим новым повелителям»


Год выпуска: 2014
Жанр: фантастика, боевик, приключения
Производство: Великобритания [British Film Company]
Режиссер: Джон Райт
В ролях: Джиллиан Андерсон, Бен Кингсли, Каллэн МакОлифф, Тамер Хассан, Джеральдин Джеймс, Стивен Макинтош, Элла Хант, Мило Паркер, Рой Хадд, Крэйг Гарнер
Сюжет фильма:
Роботы из далекой Галактики захватили Землю. Лондон разрушен, люди живут в постоянном страхе. Выжившим запрещено покидать свои дома. Каждому человеку вмонтирован чип, который в случае неповиновения может превратить его в горстку пепла. И лишь группа молодых друзей решается бросить вызов инопланетным захватчикам и уничтожить необъятный корабль, заслоняющий горизонт вот уже долгие годы.

  • Мировая премьера: 18 октября 2014


Озвучивание: Студия Пиратского дубляжа (Сладкая парочка)

Качество видео: HDRip

Продолжительность: 01:29:49
Формат: AVI
Видео: XviD, 720x304 (2.35:1), 23.976 fps, 1779 kbps
Аудио: русский, любительский двухголосый закадровый, AC3 2.0, 48 kHz, 384 kbps

Код:

Общее
Полное имя                               : Zhele3HaYa.CxBatKa.2014.P.HDRip.1400Mb.avi
Формат                                   : AVI
Формат/Информация                        : Audio Video Interleave
Размер файла                             : 1,37 Гбайт
Продолжительность                        : 1 ч. 30 м.
Общий поток                              : 2172 Кбит/сек
Программа кодирования                    : VirtualDubMod 1.5.10.2 (build 2540/release)
Библиотека кодирования                   : VirtualDubMod build 2540/release

Видео
Идентификатор                            : 0
Формат                                   : MPEG-4 Visual
Профиль формата                          : Advanced Simple@L5
Параметр BVOP формата                    : 2
Параметр QPel формата                    : Нет
Параметр GMC формата                     : Без точки перехода
Параметр матрицы формата                 : Default (MPEG)
Идентификатор кодека                     : XVID
Идентификатор кодека/Подсказка           : XviD
Продолжительность                        : 1 ч. 30 м.
Битрейт                                  : 1779 Кбит/сек
Ширина                                   : 720 пикселей
Высота                                   : 304 пикселя
Соотношение сторон                       : 2,35:1
Частота кадров                           : 23,976 кадра/сек
Цветовое пространство                    : YUV
Субдискретизация насыщенности            : 4:2:0
Битовая глубина                          : 8 бит
Тип развёртки                            : Прогрессивная
Метод сжатия                             : С потерями
Бит/(Пиксели*Кадры)                      : 0.339
Размер потока                            : 1,12 Гбайт (82%)
Библиотека кодирования                   : XviD 1.2.1 (UTC 2008-12-04)

Аудио
Идентификатор                            : 1
Формат                                   : AC-3
Формат/Информация                        : Audio Coding 3
Расширение режима                        : CM (complete main)
Параметр Endianness формата              : Big
Идентификатор кодека                     : 2000
Продолжительность                        : 1 ч. 30 м.
Вид битрейта                             : Постоянный
Битрейт                                  : 384 Кбит/сек
Каналы                                   : 2 канала
Расположение каналов                     : Front: L R
Частота                                  : 48,0 КГц
Метод сжатия                             : С потерями
Размер потока                            : 247 Мбайт (18%)
Выравнивание                             : Разделение по промежуткам
Продолжительность промежутка             : 42  мс. (1,00 видеокадр)
Время предзагрузки промежутка            : 500  мс.
picpicpicpicpic
Для увеличения картинки щелкните мышкой по превью

Этот торрент недоступен для скачивания без регистрации, однако доступен по публичной magnet-ссылке (источники с публичных трекеров). Перед использованием ссылки прочтите, пожалуйста Пользовательское соглашение, а также как можно дольше оставайтесь на раздаче! Для того, чтобы скачать сам торрент-файл (который видит больше источников), а также для того, чтобы поблагодарить релизера, вам необходимо зарегистрироваться. Если регистрироваться лень - вы можете также попробовать скачать релиз по нашим партнерским ссылкам ниже.

[underverse.su].t56965.torrent
Трекер: Зарегистрирован   [ 11.08.2015 23:00 ]  

Статус: проверено (by makkol at 12.08.2015 13:15)
Поблагодарили: пока никто не поблагодарил...
Тип торрента: публичный - доступные источники с открытых трекеров: 
Размер: 1,37 GB (занимает 0,31 DVDR, для записи нужно 1 болванка DVDR/RW)
 
 
Похожие темы
Форум Тема Автор Торрент Отв. Посл. сооб.
Зарубежное кино [DVDRip, Low-Res HDRip, и т.д.] Железная схватка / Robot Overlords (Джон Райт) [2014 г., фантастика, боевик, приключения, WEB-DLRip] DVO [Студия Пиратского дубляжа] Паукан
0 | 0

1 | 1627

120

22.04.2015 17:23

T Зарубежное кино [DVDRip, Low-Res HDRip, и т.д.] Железная схватка / Robot Overlords (Джон Райт) [2014 г., фантастика, боевик, приключения, HDRip] MVO makkol
28 | 1

0 | 681

43

01.10.2015 08:00

Зарубежное кино [HDDVDRip / BDRip / WEB-DL / HDTV 1080/720р] Железная схватка / Robot Overlords (Джон Райт) [2014 г., фантастика, боевик, приключения, BDRip 720p] DVO + Original + Subs (Eng) makkol
3 | 0

0 | 683

16

11.08.2015 23:25

T Зарубежное кино [HDDVDRip / BDRip / WEB-DL / HDTV 1080/720р] Железная схватка / Robot Overlords (Джон Райт) [2014 г., фантастика, боевик, приключения, BDRip 720p] MVO + Original makkol
9 | 0

0 | 456

22

01.10.2015 08:18

T Зарубежное кино [HDDVDRip / BDRip / WEB-DL / HDTV 1080/720р] Железная схватка / Robot Overlords (Джон Райт) [2014 г., фантастика, боевик, приключения, BDRip 1080p] MVO + Original + Subs makkol
3 | 0

0 | 679

24

01.10.2015 08:32


Яндекс.Метрика powered by Sphinx


В Н И М А Н И Е
Сайт не распространяет и не хранит электронные версии произведений, а лишь бесплатно и без коммерческой выгоды (не требуя взамен платы,
SMS и т.д.) предоставляет доступ к создаваемому пользователями каталогу ссылок на торрент-файлы, которые содержат только списки хеш-сумм.
Убедительная просьба с жалобами обращаться напрямую к пользователю, разместившему торрент файл.

Вверх